Ссылка на приватное зеркало нашего сайта всего за 1$. Внимание количество ограничено!!!

2 сезон

iTunes

1 сезон

1

2 сезон

2 сезон

iTunes

1 сезон

RePack

30

Новинка

ВАЖНО

ИГРА 18+

pack

RePack

MK11
pack

Забери бонус

RePack

jed

!!Акция!!

Alien_Rage

RePack

fifa19

RePack

Assassins Creed: Odyssey

RePack

NEED FOR SPEED™ PAYBACK

4 сезон

9 сезон

Бесстыжие 9 сезон

Все сериалы

все сериалы на PB.wtf

RePack

FAR CRY 5
  

Тонкие материи / Сезон: 1 / Серии: 1-8 из 8 (Анарио Мамедов) [2020, Мелодрама, SATRip] pb.wtf

Тонкие материи через торрент pb.wtf

Качают: 1 [ 0 KB/s ]
Размер: 5.01 GB | Добавлен: 2 мес. 18 д. назад | Торрент скачан:24 раза
Скачать  

09-09-2020 17:09 Тонкие материи Скачать торрент  

Тонкие материи
Год выпуска: 2020
Страна: Россия
Выпущено: КОСМОС студио
Жанр: Мелодрама
Продолжительность: ~ 00:43:00 серия
Перевод: Не требуется
Субтитры: отсутствуют

Режиссер: Анарио Мамедов



В ролях: Анастасия Талызина, Константин Белошапка, Софья Лебедева, Наталья Бергер, Артур Сопельник, Олег Алмазов, Антонина Паперная, Анна Большова, Кузьма Сапрыкин, Марина Гайзидорская, Алексей Сахаров (II), Софья Зайка, Ольга Хохлова, Кристина Исайкина, Сергей Шаталов, Михаил Хмуров

Описание: История разворачивается в 1962 году в 100-й секции универмага «Столица», которая очень избирательно распахивает свои двери. Например, человеку, побывавшему в космосе, разрешалось только разовое её посещение. К героям сериала, работающим в 100-й секции, каждый день приходят самые влиятельные люди страны в надежде стать самыми стильными влиятельными людьми страны. Иногда это даже получается. Один из таких клиентов — молодой и красивый племянник одного из высокопоставленных чиновников. Как устоять перед ним обычной девушке из провинции, только что устроившейся в 100-ю секцию?

Качество: SATRip
Формат: AVI

Видео: 1650 Кбит/с, 720x400
Аудио: MP3, 2 ch, 192 Кбит/с
скриншот  скриншот  скриншот  скриншот  скриншот  

Общее
Полное имя : D:\Tonkie.materii.2020.XviD.SATRip.25Kuzmich\Tonkie.materii.E01.WEB-DLRip.25Kuzmich.avi
Формат : AVI
Формат/Информация : Audio Video Interleave
Размер файла : 601 Мбайт
Продолжительность : 41 м. 58 с.
Общий поток : 2002 Кбит/сек
Программа кодирования : VirtualDubMod 1.5.10.3 | www.virtualdub-fr.org || (build 2550/release)
Библиотека кодирования : VirtualDubMod build 2550/release

Видео
Идентификатор : 0
Формат : MPEG-4 Visual
Профиль формата : Advanced Simple@L5
Параметр BVOP формата : 1
Параметр QPel формата : Нет
Параметр GMC формата : Без точки перехода
Параметр матрицы формата : Default (MPEG)
Идентификатор кодека : XVID
Идентификатор кодека/Подсказка : XviD
Продолжительность : 41 м. 58 с.
Битрейт : 1721 Кбит/сек
Ширина : 720 пикселей
Высота : 400 пикселей
Соотношение сторон : 16:9
Частота кадров : 25,000 кадров/сек
Цветовое пространство : YUV
Субдискретизация насыщенности : 4:2:0
Битовая глубина : 8 бит
Тип развёртки : Прогрессивная
Метод сжатия : С потерями
Бит/(Пиксели*Кадры) : 0.239
Размер потока : 517 Мбайт (86%)
Библиотека кодирования : XviD 73

Аудио
Идентификатор : 1
Формат : MPEG Audio
Версия формата : Version 1
Профиль формата : Layer 3
Режим : Joint stereo
Идентификатор кодека : 55
Идентификатор кодека/Подсказка : MP3
Продолжительность : 41 м. 58 с.
Вид битрейта : Постоянный
Битрейт : 192 Кбит/сек
Каналы : 2 канала
Частота : 48,0 КГц
Метод сжатия : С потерями
Размер потока : 57,6 Мбайт (10%)
Выравнивание : Соединение по промежуткам
Библиотека кодирования : LAME3.99r
Настройки программы : -m j -V 4 -q 2 -lowpass 18.6 -b 192

Внимание! Раздача ведётся путём добавления новых серий; при каждом добавлении создаётся новый торрент.
Чтобы начать докачку новой серии, пользователям необходимо сделать следующее:
1. Остановить скачивание;
2. Удалить старый торрент у себя из клиента (старые серии удалять не надо);
3. Скачать новый торрент и запустить его у себя в клиенте вместо старого, при этом указать клиенту путь в старую папку куда и должно происходить скачивание новых серий. Ваш клиент при этом должен произвести хеширование (проверку) старой папки и будет докачивать только те серии, которых у вас ещё нет. Старые серии при этом не удаляются, а продолжают раздаваться! Eсли вы уже удалили старые серии, то предотвратить повторную закачку старых серий можно, отжав галочку в соответствующих местах при запуске нового торрента.

pb.wtf



Скачать Тонкие материи через торрент http://a.kartinko.org/image_library/originals/37fvW.jpg Скачать фильм Тонкие материи через торрент бесплантно в хорошем качестве Описание: История разворачивается в 1962 году в 100-й секции универмага «Столица», которая очень избирательно распахивает свои двери. ... 10 10 2
Торрент: Зарегистрирован [2020-09-10 23:08] · скачан: 24 раз
Статус: √ проверено
Размер: 5.01 GB
Как cкачать? Как скачать Тонкие материи через торрент | qTorrent

% Раздел Тема Автор DL S | L
Наши сериалы [ 5.9 GB ] Тонкие материи / Сезон: 1 / Серии: 1-8 из 8 [2020 Мело HDTVRip-AVC] bober100 Скачать
1 | 0
Наши сериалы [ 20.2 GB ] Тонкие материи / Сезон: 1 / Серии: 1-8 из 8 [2020 Мело HDTV 1080i] bober100 Скачать
2 | 0
Наши сериалы [ 9.94 GB ] Тонкие материи / Сезон: 1 / Серии: 1-8 из 8 [2020 Мело HDTVRip 720p] bober100 Скачать
1 | 0
Наши сериалы [ 4.85 GB ] Тонкие материи / Сезон: 1 / Серии: 1-8 из 8 [2020 Мело HDTVRip] bober100 Скачать
2 | 0

28-11-2019 20:33  

Отключить всю рекламу на сайте

    Дорогой пользователь! Огромная просьба, поблагодарите релизера, оцените раздачу и оставьте свои комментарий, если Вы скачали Тонкие материи через торрент бесплатно! Внесите свою лепту в развитие PiratBit!
    Комментировать посты могут только пользователи прошедшие не сложную регистрацию
    Показать сообщения:    

    Тонкие материи через торрент
    Скачать бесплатно Тонкие материи
    Тонкие материи скачать торрент
    Тонкие материи смотреть онлайн
    Cкачать фильм Тонкие материи бесплатно
    Тонкие материи скачать торрент в хорошем качестве
    Тонкие материи смотреть онлайн бесплатно в хорошем качестве


    Вы не можете начинать темы
    Вы не можете отвечать на сообщения
    Вы не можете редактировать свои сообщения
    Вы не можете удалять свои сообщения
    Вы не можете голосовать в опросах
    Вы не можете прикреплять файлы к сообщениям
    Вы можете скачивать файлы