Ссылка на приватное зеркало нашего сайта всего за 1$. Внимание количество ограничено!!!

2 сезон

iTunes

1 сезон

1

iTunes

iTunes

iTunes

1 сезон

RePack

30

ИГРА 18+

pack

ВАЖНО

!!Акция!!

Alien_RageХит недели

RePack

MK11
pack

Забери бонус

RePack

jed

!!Акция!!

Alien_Rage

RePack

fifa19

RePack

Assassins Creed: Odyssey

RePack

NEED FOR SPEED™ PAYBACK

4 сезон

9 сезон

Бесстыжие 9 сезон

Все сериалы

все сериалы на PB.wtf

RePack

FAR CRY 5
  

Мой создатель / Archive (Гэвин Ротери) [2020, Фантастика, WEB-DL 720p] DUB [iTunes] +MVO [HDRezka Studio] pb.wtf

Мой создатель через торрент pb.wtf

Раздают: 8 [ 58 KB/s ]
Размер: 5.35 GB | Добавлен: 1 мес. 15 д. назад | Торрент скачан:143 раза
Скачать  

21-07-2020 16:45 Мой создатель Скачать торрент  

Мой создатель | Archive
Год выпуска: 2020
Страна: Великобритания, Венгрия, США
Выпущено: Independent, Hero Squared, Head Gear Films
Жанр: Фантастика
Продолжительность: 01:49:17
Перевод:
Дублированное | iTunes
Профессиональное многоголосый | HDRezka Studio
Субтитры: Русские (Forced, full), английские

Режиссер: Гэвин Ротери

rating

В ролях: Рона Митра, Тео Джеймс, Тоби Джонс, Стэйси Мартин, Питер Фердинандо, Ричард Гловер, Ханс Петерсон, Джереми Вилер, Тимея Мадай Кинга

Описание: 2046-ой год. Время невероятных технологических открытий, могущественных корпораций и торжества искусственного интеллекта. Молодой ученый в секретной лаборатории занимается поиском вечной жизни для сильных мира сего. Но его истинная цель другая. Он пытается воскресить свою единственную любовь, погибшую несколько лет назад. Когда объект перестает выходить на связь, корпорация отправляет туда команду зачистки.

Качество: WEB-DL 720p
Формат: MKV

Видео: MPEG-4 AVC, 1280x720, 5527 Kbit/s, 23.976 fps
Аудио #01: 48 kHz, AC3, 5.1, 384 Kbps | iTunes | RUS |
Аудио #02: 48 kHz, AC3, 5.1, 448 Kbps | HDRezka Studio | RUS |
Аудио #03: 48 kHz, E-AC3, 5.1, 640 Kbps | Оригинал | ENG |
скриншот  скриншот  скриншот  скриншот  скриншот  

General
Unique ID : 198201369147399736918530943165236642587 (0x951C31F7B4E2DFFB55E484509B72031B)
Complete name : D:Video111Archive.2020.D.MVO.WEB-DL.720p.seleZen.mkv
Format : Matroska
Format version : Version 4
File size : 5.35 GiB
Duration : 1 h 49 min
Overall bit rate : 7 001 kb/s
Movie name : Archive 2020 from селезень
Encoded date : UTC 2020-09-09 20:21:03
Writing application : mkvmerge v40.0.0 ('Old Town Road + Pony') 64-bit
Writing library : libebml v1.3.9 + libmatroska v1.5.2

Video
ID : 1
Format : AVC
Format/Info : Advanced Video Codec
Format profile : High@L3.1
Format settings : CABAC / 4 Ref Frames
Format settings, CABAC : Yes
Format settings, Reference : 4 frames
Codec ID : V_MPEG4/ISO/AVC
Duration : 1 h 49 min
Bit rate mode : Constant
Bit rate : 5 527 kb/s
Nominal bit rate : 6 000 kb/s
Width : 1 280 pixels
Height : 720 pixels
Display aspect ratio : 16:9
Frame rate mode : Constant
Frame rate : 23.976 (24000/1001) FPS
Color space : YUV
Chroma subsampling : 4:2:0
Bit depth : 8 bits
Scan type : Progressive
Bits/(Pixel*Frame) : 0.250
Stream size : 4.22 GiB (79%)
Language : English
Default : Yes
Forced : No
Color range : Limited
Color primaries : BT.709
Transfer characteristics : BT.709
Matrix coefficients : BT.709

Audio #1
ID : 2
Format : AC-3
Format/Info : Audio Coding 3
Commercial name : Dolby Digital
Codec ID : A_AC3
Duration : 1 h 49 min
Bit rate mode : Constant
Bit rate : 384 kb/s
Channel(s) : 6 channels
Channel layout : L R C LFE Ls Rs
Sampling rate : 48.0 kHz
Frame rate : 31.250 FPS (1536 SPF)
Compression mode : Lossy
Stream size : 300 MiB (5%)
Title : iTunes
Language : Russian
Service kind : Complete Main
Default : No
Forced : No

Audio #2
ID : 3
Format : AC-3
Format/Info : Audio Coding 3
Commercial name : Dolby Digital
Codec ID : A_AC3
Duration : 1 h 49 min
Bit rate mode : Constant
Bit rate : 448 kb/s
Channel(s) : 6 channels
Channel layout : L R C LFE Ls Rs
Sampling rate : 48.0 kHz
Frame rate : 31.250 FPS (1536 SPF)
Compression mode : Lossy
Stream size : 350 MiB (6%)
Title : MVO [HDRezka Studio]
Language : Russian
Service kind : Complete Main
Default : No
Forced : No

Audio #3
ID : 4
Format : E-AC-3
Format/Info : Enhanced AC-3
Commercial name : Dolby Digital Plus
Codec ID : A_EAC3
Duration : 1 h 49 min
Bit rate mode : Constant
Bit rate : 640 kb/s
Channel(s) : 6 channels
Channel layout : L R C LFE Ls Rs
Sampling rate : 48.0 kHz
Frame rate : 31.250 FPS (1536 SPF)
Compression mode : Lossy
Stream size : 500 MiB (9%)
Title : Original
Language : English
Service kind : Complete Main
Default : No
Forced : No

Text #1
ID : 5
Format : UTF-8
Codec ID : S_TEXT/UTF8
Codec ID/Info : UTF-8 Plain Text
Duration : 1 h 41 min
Bit rate : 3 b/s
Count of elements : 81
Stream size : 2.65 KiB (0%)
Title : Forced
Language : Russian
Default : Yes
Forced : Yes

Text #2
ID : 6
Format : UTF-8
Codec ID : S_TEXT/UTF8
Codec ID/Info : UTF-8 Plain Text
Duration : 1 h 42 min
Bit rate : 69 b/s
Count of elements : 1035
Stream size : 52.0 KiB (0%)
Title : Full
Language : Russian
Default : No
Forced : No

Text #3
ID : 7
Format : UTF-8
Codec ID : S_TEXT/UTF8
Codec ID/Info : UTF-8 Plain Text
Duration : 1 h 41 min
Bit rate : 42 b/s
Count of elements : 1068
Stream size : 31.4 KiB (0%)
Title : Full
Language : English
Default : No
Forced : No

Text #4
ID : 8
Format : UTF-8
Codec ID : S_TEXT/UTF8
Codec ID/Info : UTF-8 Plain Text
Duration : 1 h 41 min
Bit rate : 45 b/s
Count of elements : 1184
Stream size : 34.0 KiB (0%)
Title : SDH
Language : English
Default : No
Forced : No

pb.wtf



Скачать Мой создатель через торрент https://a.radikal.ru/a34/2009/52/ba7b06ded8f1.jpg Скачать фильм Мой создатель через торрент бесплантно в хорошем качестве Описание: 2046-ой год. Время невероятных технологических открытий, могущественных корпораций и торжества искусственного интеллекта. Молодой ... 9.7 10 15
Торрент: Зарегистрирован [2020-09-09 20:30] · скачан: 143 раз
Статус: √ проверено
Размер: 5.35 GB
Как cкачать? Как скачать Мой создатель через торрент | qTorrent

% Раздел Тема Автор DL S | L
Фильмы (WEB-DL 720p, 1080p) [ 8.14 GB ] Мой создатель / Archive [2020 WEB-DL 1080p] +MVO [HDRezka Studio] bober100 Скачать
8 | 1
Фильмы 2019-2020 [DVDrip, WEB-DLRip, HDrip] (DUB, MVO) [ 745 MB ] Мой создатель / Archive [2020 WEB-DLRip] bober100 Скачать
5 | 0
Фильмы 2019-2020 [DVDrip, WEB-DLRip, HDrip] (DUB, MVO) [ 2.54 GB ] Мой создатель / Archive [2020 WEB-DLRip-AVC] - ExKinoRay Enigma2010 Скачать
298 | 18
Фильмы 2019-2020 [DVDrip, WEB-DLRip, HDrip] (DUB, MVO) [ 1.46 GB ] Мой создатель / Archive [2020 WEB-DLRip] bober100 Скачать
9 | 0
Фильмы 2019-2020 [DVDrip, WEB-DLRip, HDrip] (DUB, MVO) [ 1.46 GB ] Мой создатель / Archive [2020 WEB-DLRip] MVO [HDRezka Studio] bober100 Скачать
17 | 0
T Фильмы с украинским озвучиванием [ 7.65 GB ] Мой создатель / Творець / Archive [2020 WEB-DL 1080p] [Ukr DUB] killermax2013 Скачать
6 | 0
Фильмы 2019-2020 [DVDrip, WEB-DLRip, HDrip] (DUB, MVO) [ 745 MB ] Мой создатель / Archive [2020 WEB-DLRip] MVO [HDRezka Studio] bober100 Скачать
2 | 0


Последний раз редактировалось: bober100 (2020-09-09 20:30), всего редактировалось 1 раз

28-11-2019 20:33  

Отключить всю рекламу на сайте

25-07-2020 07:53 Мой создатель Скачать торрент  

Не плохой такой фильмец,мне понравился,на разок посмотреть скоротать вечерок за ничего неделанием можно.pb.wtf



25-07-2020 15:21 Мой создатель Скачать торрент  

Спасибо релизеру, хороший звук и картинка......Но сам фильм...это просто печаль. Полное гуано, недостойное затраченного времени.pb.wtf



10-09-2020 05:43 Мой создатель Скачать торрент  

ну, далеко не пол ное ... Вполне смотрибельный. На раз и правда - вполне. Это не боевик, не триллер прям, не мистика, не открытие века. Просто адекватная неплохая фантастическая история о людях , их надеждах и чаяньях.... По крайней мере не очередной чей нибудь говновброс.... 6 из 10 точнякpb.wtf



    Дорогой пользователь! Огромная просьба, поблагодарите релизера, оцените раздачу и оставьте свои комментарий, если Вы скачали Мой создатель через торрент бесплатно! Внесите свою лепту в развитие PiratBit!
    Комментировать посты могут только пользователи прошедшие не сложную регистрацию
    Показать сообщения:    

    Мой создатель через торрент
    Скачать бесплатно Мой создатель
    Мой создатель скачать торрент
    Мой создатель смотреть онлайн
    Cкачать фильм Мой создатель бесплатно
    Мой создатель скачать торрент в хорошем качестве
    Мой создатель смотреть онлайн бесплатно в хорошем качестве


    Вы не можете начинать темы
    Вы не можете отвечать на сообщения
    Вы не можете редактировать свои сообщения
    Вы не можете удалять свои сообщения
    Вы не можете голосовать в опросах
    Вы не можете прикреплять файлы к сообщениям
    Вы можете скачивать файлы