Ссылка на приватное зеркало нашего сайта всего за 1$. Внимание количество ограничено!!!

2 сезон

iTunes

1 сезон

1

iTunes

iTunes

iTunes

1 сезон

RePack

30

ИГРА 18+

pack

ВАЖНО

!!Акция!!

Alien_RageХит недели

RePack

MK11
pack

Забери бонус

RePack

jed

!!Акция!!

Alien_Rage

RePack

fifa19

RePack

Assassins Creed: Odyssey

RePack

NEED FOR SPEED™ PAYBACK

4 сезон

9 сезон

Бесстыжие 9 сезон

Все сериалы

все сериалы на PB.wtf

RePack

FAR CRY 5
  

Мгновенная смерть / Instant Death (Ара Пайая) [2017, Боевик, криминал, WEB-DL 1080p] MVO [IVI] pb.wtf

Мгновенная смерть через торрент pb.wtf

Размер: 3.11 GB | Добавлен: 1 мес. 17 д. назад | Торрент скачан:32 раза
Скачать  

04-09-2020 16:38 Мгновенная смерть Скачать торрент  

Мгновенная смерть | Instant Death
Год выпуска: 2017
Страна: Великобритания
Выпущено: Raging Pictures
Жанр: Боевик, криминал
Продолжительность: 01:24:07
Перевод: Профессиональный (многоголосый) | IVI
Субтитры: отсутствуют

Режиссер: Ара Пайая

rating

В ролях: Лу Ферриньо, Джейд Фиарон, Джерри Андерсон, Крэйг Мэлпасс

Описание: Ветеран Джон Брэдли пытается привыкнуть к нормальной жизни и избавиться от демонов прошлого. Но однажды он оказывается не в то время, не в том месте, что приводит к плачевным последствиям, и Джон снова попадает в пучину жестокости.

Качество: WEB-DL 1080p
Формат: MKV

Видео: MPEG-4 AVC, 5120 Kb/s, 1920x810, 25 FPS
Аудио: 48 kHz, Audio Coding 3, 2/0 (L, R) ch, ~192 Kbps
скриншот  скриншот  скриншот  скриншот  

Complete name: Mgnovennaya.smert.2017.WEB-DL.1080p.ELEKTRI4KA.UNIONGANG.mkv
Format: Matroska
Format version: Version 4 / Version 2
File size: 3.11 GiB
Duration: 1 h 24 min
Overall bit rate: 5 301 kb/s
Movie name: .ELEKTRI4KA.UNIONGANG.
Encoded date: UTC 2020-08-31 13:57:23
Writing application: mkvmerge v8.3.0 ('Over the Horizon') 64bit
Writing library: libebml v1.3.1 + libmatroska v1.4.2

Video
ID: 1
Format: AVC
Format/Info: Advanced Video Codec
Format profile: High@L4
Format settings, CABAC: Yes
Format settings, Reference frames: 4 frames
Codec ID: V_MPEG4/ISO/AVC
Duration: 1 h 24 min
Bit rate: 5 120 kb/s
Width: 1 920 pixels
Height: 810 pixels
Display aspect ratio: 2.40:1
Frame rate mode: Constant
Frame rate: 25.000 FPS
Color space: YUV
Chroma subsampling: 4:2:0
Bit depth: 8 bits
Scan type: Progressive
Bits/(Pixel*Frame): 0.132
Stream size: 3.00 GiB (96%)
Title: .ELEKTRI4KA.UNIONGANG.
Writing library: x264 core 148
Encoding settings: cabac=1 / ref=3 / deblock=1:0:0 / analyse=0x3:0x113 / me=hex / subme=7 / psy=1 / psy_rd=1.00:0.00 / mixed_ref=1 / me_range=16 / chroma_me=1 / trellis=1 / 8x8dct=1 / cqm=0 / deadzone=21, 11 / fast_pskip=1 / chroma_qp_offset=-2 / threads=25 / lookahead_threads=4 / sliced_threads=0 / nr=0 / decimate=1 / interlaced=0 / bluray_compat=0 / constrained_intra=0 / bframes=6 / b_pyramid=2 / b_adapt=1 / b_bias=0 / direct=1 / weightb=1 / open_gop=0 / weightp=2 / keyint=50 / keyint_min=26 / scenecut=0 / intra_refresh=0 / rc_lookahead=40 / rc=2pass / mbtree=1 / bitrate=5120 / ratetol=1.0 / qcomp=0.60 / qpmin=0 / qpmax=69 / qpstep=4 / cplxblur=20.0 / qblur=0.5 / vbv_maxrate=7680 / vbv_bufsize=20480 / nal_hrd=none / filler=0 / ip_ratio=1.40 / aq=1:1.00
Default: Yes
Forced: No

Audio
ID: 2
Format: AC-3
Format/Info: Audio Coding 3
Mode extension: CM (complete main)
Format settings, Endianness: Big
Codec ID: A_AC3
Duration: 1 h 24 min
Bit rate mode: Constant
Bit rate: 192 kb/s
Channel(s): 2 channels
Channel positions: Front: L R
Sampling rate: 48.0 kHz
Frame rate: 31.250 FPS (1536 spf)
Bit depth: 16 bits
Compression mode: Lossy
Stream size: 116 MiB (4%)
Title: IVI
Language: Russian
Default: Yes
Forced: No

pb.wtf



Скачать Мгновенная смерть через торрент https://a.radikal.ru/a35/2009/7f/bdf458c7e057.png Скачать фильм Мгновенная смерть через торрент бесплантно в хорошем качестве Описание: Ветеран Джон Брэдли пытается привыкнуть к нормальной жизни и избавиться от демонов прошлого. Но однажды он оказывается не в то ... 10 10 3
Торрент: Зарегистрирован [2020-09-04 16:38] · скачан: 32 раз
Статус: T временная
Размер: 3.11 GB
Как cкачать? Как скачать Мгновенная смерть через торрент | qTorrent

% Раздел Тема Автор DL S | L
T Фильмы 2017 [DVDrip, WEB-DLRip, HDrip] (DUB, MVO) [ 1.82 GB ] Мгновенная смерть / Instant Death [2017 WEB-DLRip-AVC] [MVO] [IVI] | wolf1245 & Mediabit Lithuania Скачать
2 | 0
T Фильмы 2017 [DVDrip, WEB-DLRip, HDrip] (DUB, MVO) [ 1.37 GB ] Мгновенная смерть / Instant Death [2017 WEB-DLRip] MVO [IVI] bober100 Скачать
2 | 0

28-11-2019 20:33  

Отключить всю рекламу на сайте

16-09-2020 04:18 Мгновенная смерть Скачать торрент  

жёсткое и жестокое киноpb.wtf



    Дорогой пользователь! Огромная просьба, поблагодарите релизера, оцените раздачу и оставьте свои комментарий, если Вы скачали Мгновенная смерть через торрент бесплатно! Внесите свою лепту в развитие PiratBit!
    Комментировать посты могут только пользователи прошедшие не сложную регистрацию
    Показать сообщения:    

    Мгновенная смерть через торрент
    Скачать бесплатно Мгновенная смерть
    Мгновенная смерть скачать торрент
    Мгновенная смерть смотреть онлайн
    Cкачать фильм Мгновенная смерть бесплатно
    Мгновенная смерть скачать торрент в хорошем качестве
    Мгновенная смерть смотреть онлайн бесплатно в хорошем качестве


    Вы не можете начинать темы
    Вы не можете отвечать на сообщения
    Вы не можете редактировать свои сообщения
    Вы не можете удалять свои сообщения
    Вы не можете голосовать в опросах
    Вы не можете прикреплять файлы к сообщениям
    Вы можете скачивать файлы