Ссылка на приватное зеркало нашего сайта всего за 1$. Внимание количество ограничено!!!

2 сезон

iTunes

1 сезон

1

iTunes

iTunes

iTunes

1 сезон

RePack

30

ИГРА 18+

pack

ВАЖНО

!!Акция!!

Alien_RageХит недели

RePack

MK11
pack

Забери бонус

RePack

jed

!!Акция!!

Alien_Rage

RePack

fifa19

RePack

Assassins Creed: Odyssey

RePack

NEED FOR SPEED™ PAYBACK

4 сезон

9 сезон

Бесстыжие 9 сезон

Все сериалы

все сериалы на PB.wtf

RePack

FAR CRY 5
  

Рок-н-рольщик / RocknRolla (Гай Ричи) [2008, боевик, триллер, криминал, BDRip 1080p] AVO (Д.Пучков "ака" Гоблин) +DUB [Лицензия] pb.wtf

Рок-н-рольщик через торрент pb.wtf

Раздают: 3 [ 0.2 KB/s ]
Размер: 7.76 GB | Добавлен: 1 год 7 мес. назад | Торрент скачан:387 раз
Скачать  

10-03-2019 19:54 Рок-н-рольщик Скачать торрент  

Рок-н-рольщик / RocknRolla Год выпуска: 2008
Страна: США, Великобритания
Жанр: боевик, триллер, криминал
Продолжительность: 01:54:19
Перевод:

Дублированный | Лицензия
Авторский | Дмитрий «Гоблин» Пучков (мат «запикан»)

Субтитры: Русские, английские

Режиссер: Гай Ричи

rating

В ролях:

Джерард Батлер, Марк Стронг, Том Харди, Том Уилкинсон, Тэнди Ньютон, Идрис Эльба, Карел Роден, Тоби Кеббелл, Джереми Пивен, Лудакрис

Описание:

Фильм окунет вас в опасный мир коррупции и жизни криминальных отбросов современного Лондона, где недвижимость потеснила такого внушительного лидера торгового рынка, как наркотики, а самыми активными предпринимателями стали преступные группировки. Но каждому, кто захочет проворачивать там свои дела, будь то мелкая сошка Раз-два или русский теневой миллиардер Юрий Омович, придется сначала договориться с одним и тем же человеком — Ленни Коулом.

Качество: BDRip 1080p
Формат: MKV

Видео: 1920x800 (2,40:1), 23.976 fps, 7800 kbps
Аудио#1: AC-3, 6 ch, 640 kbps (Дубляж)
Аудио#2: AC-3, 6 ch, 640 kbps (Одноголосый закадровый, Дмитрий «Гоблин» Пучков)
Аудио#3: AC-3, 6 ch, 640 kbps (Original)
скриншот  скриншот  скриншот  

Общее
Уникальный идентификатор : 211376216145231517477038834352626126551 (0x9F0594135E49C8EBAF38706E7ED0CED7)
Полное имя : RocknRolla.2008.BDRip.1080p.Rus.Eng.mkv
Формат : Matroska
Версия формата : Version 2
Размер файла : 7,76 Гбайт
Продолжительность : 1 ч. 54 м.
Общий поток : 9717 Кбит/сек
Название фильма : Рок-н-рольщик / RocknRolla (2008)
Дата кодирования : UTC 2012-12-15 22:38:16
Программа кодирования : mkvmerge v5.8.0 ('No Sleep / Pillow') built on Sep 2 2012 15:37:04
Библиотека кодирования : libebml v1.2.3 + libmatroska v1.3.0

Видео
Идентификатор : 1
Формат : AVC
Формат/Информация : Advanced Video Codec
Профиль формата : High@L4.1
Параметр CABAC формата : Да
Параметр ReFrames формата : 5 кадров
Идентификатор кодека : V_MPEG4/ISO/AVC
Продолжительность : 1 ч. 54 м.
Битрейт : 7800 Кбит/сек
Ширина : 1920 пикселей
Высота : 800 пикселей
Соотношение сторон : 2,40:1
Частота кадров : 23,976 кадра/сек
Цветовое пространство : YUV
Субдискретизация насыщенности : 4:2:0
Битовая глубина : 8 бит
Тип развёртки : Прогрессивная
Бит/(Пиксели*Кадры) : 0.212
Размер потока : 6,07 Гбайт (78%)
Заголовок : Release by AlexKa
Библиотека кодирования : x264 core 129 r2230 1cffe9f
Настройки программы : cabac=1 / ref=5 / deblock=1:-3:-3 / analyse=0x3:0x133 / me=umh / subme=10 / psy=1 / psy_rd=1.05:0.00 / mixed_ref=1 / me_range=32 / chroma_me=1 / trellis=2 / 8x8dct=1 / cqm=0 / deadzone=21,11 / fast_pskip=0 / chroma_qp_offset=-2 / threads=12 / lookahead_threads=2 / sliced_threads=0 / nr=0 / decimate=0 / interlaced=0 / bluray_compat=0 / constrained_intra=0 / bframes=5 / b_pyramid=2 / b_adapt=2 / b_bias=0 / direct=3 / weightb=1 / open_gop=0 / weightp=2 / keyint=240 / keyint_min=23 / scenecut=40 / intra_refresh=0 / rc=2pass / mbtree=0 / bitrate=7800 / ratetol=1.0 / qcomp=0.60 / qpmin=0 / qpmax=69 / qpstep=4 / cplxblur=20.0 / qblur=0.5 / ip_ratio=1.40 / pb_ratio=1.30 / aq=1:0.50
Язык : English

Аудио #1
Идентификатор : 2
Формат : AC-3
Формат/Информация : Audio Coding 3
Расширение режима : CM (complete main)
Идентификатор кодека : A_AC3
Продолжительность : 1 ч. 54 м.
Вид битрейта : Постоянный
Битрейт : 640 Кбит/сек
Каналы : 6 каналов
Расположение каналов : Front: L C R, Side: L R, LFE
Частота : 48,0 КГц
Битовая глубина : 16 бит
Метод сжатия : С потерями
Размер потока : 523 Мбайт (7%)
Заголовок : Дубляж
Язык : Russian

Аудио #2
Идентификатор : 3
Формат : AC-3
Формат/Информация : Audio Coding 3
Расширение режима : CM (complete main)
Идентификатор кодека : A_AC3
Продолжительность : 1 ч. 54 м.
Вид битрейта : Постоянный
Битрейт : 640 Кбит/сек
Каналы : 6 каналов
Расположение каналов : Front: L C R, Side: L R, LFE
Частота : 48,0 КГц
Битовая глубина : 16 бит
Метод сжатия : С потерями
Размер потока : 523 Мбайт (7%)
Заголовок : Одноголосый закадровый, Дмитрий «Гоблин» Пучков
Язык : Russian

Аудио #3
Идентификатор : 4
Формат : AC-3
Формат/Информация : Audio Coding 3
Расширение режима : CM (complete main)
Идентификатор кодека : A_AC3
Продолжительность : 1 ч. 54 м.
Вид битрейта : Постоянный
Битрейт : 640 Кбит/сек
Каналы : 6 каналов
Расположение каналов : Front: L C R, Side: L R, LFE
Частота : 48,0 КГц
Битовая глубина : 16 бит
Метод сжатия : С потерями
Размер потока : 523 Мбайт (7%)
Заголовок : Original
Язык : English

Текст #1
Идентификатор : 5
Формат : UTF-8
Идентификатор кодека : S_TEXT/UTF8
Идентификатор кодека/Информация : UTF-8 Plain Text
Заголовок : Rus
Язык : Russian

Текст #2
Идентификатор : 6
Формат : UTF-8
Идентификатор кодека : S_TEXT/UTF8
Идентификатор кодека/Информация : UTF-8 Plain Text
Заголовок : Eng
Язык : English

Меню
00:00:00.000 : :Chapter 01
00:05:10.101 : :Chapter 02
00:08:48.903 : :Chapter 03
00:12:34.420 : :Chapter 04
00:15:28.427 : :Chapter 05
00:18:35.864 : :Chapter 06
00:23:05.509 : :Chapter 07
00:28:17.904 : :Chapter 08
00:34:02.832 : :Chapter 09
00:38:55.750 : :Chapter 10
00:44:27.373 : :Chapter 11
00:47:09.034 : :Chapter 12
00:51:28.668 : :Chapter 13
00:57:48.548 : :Chapter 14
01:00:41.512 : :Chapter 15
01:03:11.496 : :Chapter 16
01:06:21.978 : :Chapter 17
01:11:38.294 : :Chapter 18
01:16:00.264 : :Chapter 19
01:22:12.427 : :Chapter 20
01:26:02.866 : :Chapter 21
01:29:50.301 : :Chapter 22
01:32:45.184 : :Chapter 23
01:36:05.509 : :Chapter 24
01:40:54.548 : :Chapter 25
01:43:23.030 : :Chapter 26
01:45:26.153 : :Chapter 27
01:48:22.120 : :Chapter 28
01:54:18.810 : :Chapter 29

pb.wtf



Скачать Рок-н-рольщик через торрент http://lostpic.net/images/5d9d016961e8e189eb27c8682fee4afa.jpg Скачать фильм Рок-н-рольщик через торрент бесплантно в хорошем качестве Описание: Фильм окунет вас в опасный мир коррупции и жизни криминальных отбросов современного Лондона, где недвижимость потеснила такого ... 10 10 11
Info! Золотая раздача, скачанное не засчитывается.
Торрент: Зарегистрирован [2019-03-10 19:54] · скачан: 387 раз
Статус: √ проверено
Размер: 7.76 GB
Как cкачать? Как скачать Рок-н-рольщик через торрент | qTorrent

% Раздел Тема Автор DL S | L
Фильмы [HD 720p, 1080p] (Хороший звук DUB, MVO) [ 5.8 GB ] Рок-н-рольщик / RocknRolla [2008 BDRip 720p] DUB+4xAVO+2xMVO bober100 Скачать
5 | 0
Фильмы 2006-2008 [ 1.44 GB ] Рок-н-рольщик / RocknRolla [2008 ьный BDRip-AVC] DUB + Sub potroks Скачать
2 | 0

28-11-2019 20:33  

Отключить всю рекламу на сайте

11-03-2019 05:22 Рок-н-рольщик Скачать торрент  

слушать Пучкова с "запикиванием" это как слушать музыку с берушами.....pb.wtf



11-03-2019 13:27 Рок-н-рольщик Скачать торрент  

чо серьёзно Гоблин "запикан"? ну и нофега такой изврат? где взять нормальный звук от Гоблина?pb.wtf



11-03-2019 15:52 Рок-н-рольщик Скачать торрент  

edapush писал(а):

чо серьёзно Гоблин "запикан"? ну и нофега такой изврат? где взять нормальный звук от Гоблина?

https://pb.wtf/topic/11404/

В соседнем релизе.pb.wtf



16-09-2020 11:14 Рок-н-рольщик Скачать торрент  

Гоблина нельзя запикивать, это святотатство!)pb.wtf



16-09-2020 11:15 Рок-н-рольщик Скачать торрент  

4etaneto писал(а):

edapush писал(а):

чо серьёзно Гоблин "запикан"? ну и нофега такой изврат? где взять нормальный звук от Гоблина?

https://pb.wtf/topic/11404/

В соседнем релизе.

не качается)pb.wtf



    Дорогой пользователь! Огромная просьба, поблагодарите релизера, оцените раздачу и оставьте свои комментарий, если Вы скачали Рок-н-рольщик через торрент бесплатно! Внесите свою лепту в развитие PiratBit!
    Комментировать посты могут только пользователи прошедшие не сложную регистрацию
    Показать сообщения:    

    Рок-н-рольщик через торрент
    Скачать бесплатно Рок-н-рольщик
    Рок-н-рольщик скачать торрент
    Рок-н-рольщик смотреть онлайн
    Cкачать фильм Рок-н-рольщик бесплатно
    Рок-н-рольщик скачать торрент в хорошем качестве
    Рок-н-рольщик смотреть онлайн бесплатно в хорошем качестве


    Вы не можете начинать темы
    Вы не можете отвечать на сообщения
    Вы не можете редактировать свои сообщения
    Вы не можете удалять свои сообщения
    Вы не можете голосовать в опросах
    Вы не можете прикреплять файлы к сообщениям
    Вы можете скачивать файлы