Ссылка на приватное зеркало нашего сайта всего за 1$. Внимание количество ограничено!!!

2 сезон

iTunes

1 сезон

1

2 сезон

2 сезон

iTunes

1 сезон

RePack

30

Новинка

ВАЖНО

ИГРА 18+

pack

RePack

MK11
pack

Забери бонус

RePack

jed

!!Акция!!

Alien_Rage

RePack

fifa19

RePack

Assassins Creed: Odyssey

RePack

NEED FOR SPEED™ PAYBACK

4 сезон

9 сезон

Бесстыжие 9 сезон

Все сериалы

все сериалы на PB.wtf

RePack

FAR CRY 5
  

Танец для двоих / Серии: 1-2 из 2 (Алексей Карелин) [2020, Мелодрама, SATRip] pb.wtf

Танец для двоих через торрент pb.wtf

Размер: 2.39 GB | Добавлен: 2 мес. 14 д. назад | Торрент скачан:36 раз
Скачать  

19-09-2020 17:35 Танец для двоих Скачать торрент  

Танец для двоих
Год выпуска: 2020
Страна: Россия
Производство: Производство ООО «Паламеда Продакшн», Кинокомпания «Фабула Продакшн»
Жанр: Мелодрама
Продолжительность: ~ 01:25:00 серия
Субтитры: отсутствуют

Режиссер: Алексей Карелин

В ролях: Валерия Ланская, Илья Алексеев, Артём Григорьев, Алиса Петрова, Вероника Пляшкевич, Руслан Чернецкий, Зоя Белохвостик, Василий Рукша, Ирина Савошко, Елена Барсукова

Описание: Лера – счастлива замужем, растит сына Никиту и преподает танцы в лучшей студии города. Там же занимается ее сын. Лера гордится им и готовит к танцевальному конкурсу. Но Никита решает покатается на роликах, вылетает на проезжую часть и ломает ногу. А потом рассказывает матери, что его сбил мужчина. Лера решает во что бы то ни стало разыскать и наказать виновного. В довершение ко всему ее муж Андрей сообщает о ей разводе, он завел роман с начальницей и уходит из семьи. Жизнь Леры рушится. Тем временем Анжела решает выучить свадебный танец, приводит своего жениха Илью в студию к Лере и заставляет его учиться танцевать. Лера вскоре влюбляется в своего нового ученика и не подозревает, что он тот самый человек, которого она ищет…

Качество: SATRip
Формат: AVI

Видео: XviD, 720x400, ~ 1700 Кбит/с, 0.236 bit/pixel, 25 кадр/с
Аудио: МР3, 48,0 КГц, 2 ch, 192 Кбит/с
скриншот  скриншот  скриншот  скриншот  

Общее
Полное имя : D:\Танец.Для.Двоих.XviD.2019.SATRip.7turza™\01.Танец.Для.Двоих.7turza™.avi
Формат : AVI
Формат/Информация : Audio Video Interleave
Профиль формата : OpenDML
Размер файла : 1,14 Гбайт
Продолжительность : 1 ч. 25 м.
Общий поток : 1905 Кбит/сек
Название фильма : S01 E01 # from 7turza #
Программа кодирования : Lavf58.45.100

Видео
Идентификатор : 0
Формат : MPEG-4 Visual
Профиль формата : Advanced Simple@L5
Настройки формата : BVOP1
Параметр BVOP формата : 1
Параметр QPel формата : Нет
Параметр GMC формата : Без точки перехода
Параметр матрицы формата : Default (H.263)
Идентификатор кодека : XVID
Идентификатор кодека/Подсказка : XviD
Продолжительность : 1 ч. 25 м.
Битрейт : 1697 Кбит/сек
Ширина : 720 пикселей
Высота : 400 пикселей
Соотношение сторон : 16:9
Частота кадров : 25,000 кадров/сек
Цветовое пространство : YUV
Субдискретизация насыщенности : 4:2:0
Битовая глубина : 8 бит
Тип развёртки : Прогрессивная
Метод сжатия : С потерями
Бит/(Пиксели*Кадры) : 0.236
Размер потока : 1,01 Гбайт (89%)
Библиотека кодирования : XviD 69

Аудио
Идентификатор : 1
Формат : MPEG Audio
Версия формата : Version 1
Профиль формата : Layer 3
Настройки формата : Joint stereo
Идентификатор кодека : 55
Идентификатор кодека/Подсказка : MP3
Продолжительность : 1 ч. 25 м.
Вид битрейта : Постоянный
Битрейт : 192 Кбит/сек
Каналы : 2 канала
Частота : 48,0 КГц
Метод сжатия : С потерями
Размер потока : 117 Мбайт (10%)
Выравнивание : Соединение по промежуткам
Продолжительность промежутка : 24 мс. (0,60 видеокадр)
Библиотека кодирования : LAME3.100

pb.wtf



Скачать Танец для двоих через торрент https://a.radikal.ru/a36/2009/de/06bb76ff9994.jpg Скачать фильм Танец для двоих через торрент бесплантно в хорошем качестве Описание: Лера – счастлива замужем, растит сына Никиту и преподает танцы в лучшей студии города. Там же занимается ее сын. Лера гордится им ... 10 10 2
Торрент: Зарегистрирован [2020-09-19 17:35] · скачан: 36 раз
Статус: √ проверено
Размер: 2.39 GB
Как cкачать? Как скачать Танец для двоих через торрент | qTorrent

% Раздел Тема Автор DL S | L
Наши сериалы [ 4.65 GB ] Танец для двоих / Серии: 1-2 из 2 [2020 Мело HDTVRip 720p] bober100 Скачать
2 | 0
Наши сериалы [ 9.64 GB ] Танец для двоих / Серии: 1-2 из 2 [2020 Мело HDTV 1080i] bober100 Скачать
1 | 0

28-11-2019 20:33  

Отключить всю рекламу на сайте

    Дорогой пользователь! Огромная просьба, поблагодарите релизера, оцените раздачу и оставьте свои комментарий, если Вы скачали Танец для двоих через торрент бесплатно! Внесите свою лепту в развитие PiratBit!
    Комментировать посты могут только пользователи прошедшие не сложную регистрацию
    Показать сообщения:    

    Танец для двоих через торрент
    Скачать бесплатно Танец для двоих
    Танец для двоих скачать торрент
    Танец для двоих смотреть онлайн
    Cкачать фильм Танец для двоих бесплатно
    Танец для двоих скачать торрент в хорошем качестве
    Танец для двоих смотреть онлайн бесплатно в хорошем качестве


    Вы не можете начинать темы
    Вы не можете отвечать на сообщения
    Вы не можете редактировать свои сообщения
    Вы не можете удалять свои сообщения
    Вы не можете голосовать в опросах
    Вы не можете прикреплять файлы к сообщениям
    Вы можете скачивать файлы