Ссылка на приватное зеркало нашего сайта всего за 1$. Внимание количество ограничено!!!

2 сезон

iTunes

1 сезон

1

iTunes

iTunes

iTunes

1 сезон

RePack

30

ИГРА 18+

pack

ВАЖНО

!!Акция!!

Alien_RageХит недели

RePack

MK11
pack

Забери бонус

RePack

jed

!!Акция!!

Alien_Rage

RePack

fifa19

RePack

Assassins Creed: Odyssey

RePack

NEED FOR SPEED™ PAYBACK

4 сезон

9 сезон

Бесстыжие 9 сезон

Все сериалы

все сериалы на PB.wtf

RePack

FAR CRY 5
  

Не входи / The Owners (Джулиус Берг) [2020, Триллер, криминал, WEB-DL 720p] DUB [iTunes] pb.wtf

Не входи через торрент pb.wtf

Раздают: 6 [ 11 KB/s ]
Размер: 2.22 GB | Добавлен: 28 д. назад | Торрент скачан:92 раза
Скачать  

24-09-2020 15:06 Не входи Скачать торрент  

Не входи | The Owners
Год выпуска: 2020
Страна: Великобритания
Студия: Blue Light, Logical Pictures, Wild Bunch
Жанр: Триллер, криминал
Продолжительность: 01:32:56
Перевод: Дублированный | iTunes
Субтитры: Английские

Режиссер: Джулиус Берг

rating

В ролях: Мэйси Уильямс, Сильвестр МакКой, Рита Ташингэм, Джейк Каррен, Иэн Кенни, Эндрю Эллис, Сташа Хикс

Описание: Три молодых британских бездельника планируют ограбить особняк местного хирурга. Проникнув в дом, они довольно быстро находят сейф, но взломать его никак не получается. Пока злоумышленники дожидаются хозяев, чтобы выпытать у них код, к ним присоединяется девушка одного из них. А когда домой возвращается пожилой доктор с супругой, события принимают неожиданный поворот.

Качество: WEB-DL 720p
Формат: MKV

Видео: MPEG-4 AVC, 1280x544, 2426 Кbit/s, 24.000 fps
Аудио#1: 48 kHz, AC3, 5.1, 384 Kbps | iTunes | RUS |
Аудио#2: 48 kHz, E-AC3, 5.1, 640 Kbps | Оригинал | ENG |
скриншот  скриншот  скриншот  скриншот  скриншот  

General
Unique ID : 163475499841841791370018613738618091356 (0x7AFC3C6C964B125F6D5C92385E2DF75C)
Complete name : D:Video111The.Owners.2020.AMZN.WEB-DL.720p.seleZen.mkv
Format : Matroska
Format version : Version 4
File size : 2.22 GiB
Duration : 1 h 32 min
Overall bit rate : 3 452 kb/s
Movie name : The Owners 2020 from селезень
Encoded date : UTC 2020-09-23 11:57:08
Writing application : mkvmerge v40.0.0 ('Old Town Road + Pony') 64-bit
Writing library : libebml v1.3.9 + libmatroska v1.5.2

Video
ID : 1
Format : AVC
Format/Info : Advanced Video Codec
Format profile : High@L3.1
Format settings : CABAC / 4 Ref Frames
Format settings, CABAC : Yes
Format settings, Reference : 4 frames
Codec ID : V_MPEG4/ISO/AVC
Duration : 1 h 31 min
Bit rate mode : Constant
Bit rate : 2 426 kb/s
Nominal bit rate : 6 000 kb/s
Width : 1 280 pixels
Height : 544 pixels
Display aspect ratio : 2.35:1
Original display aspect rat: 2.35:1
Frame rate mode : Constant
Frame rate : 24.000 FPS
Color space : YUV
Chroma subsampling : 4:2:0
Bit depth : 8 bits
Scan type : Progressive
Bits/(Pixel*Frame) : 0.145
Stream size : 1.56 GiB (70%)
Language : English
Default : Yes
Forced : No
Color range : Limited
Color primaries : BT.709
Transfer characteristics : BT.709
Matrix coefficients : BT.709

Audio #1
ID : 2
Format : AC-3
Format/Info : Audio Coding 3
Commercial name : Dolby Digital
Codec ID : A_AC3
Duration : 1 h 32 min
Bit rate mode : Constant
Bit rate : 384 kb/s
Channel(s) : 6 channels
Channel layout : L R C LFE Ls Rs
Sampling rate : 48.0 kHz
Frame rate : 31.250 FPS (1536 SPF)
Compression mode : Lossy
Stream size : 253 MiB (11%)
Title : iTunes
Language : Russian
Service kind : Complete Main
Default : Yes
Forced : Yes

Audio #2
ID : 3
Format : E-AC-3
Format/Info : Enhanced AC-3
Commercial name : Dolby Digital Plus
Codec ID : A_EAC3
Duration : 1 h 31 min
Bit rate mode : Constant
Bit rate : 640 kb/s
Channel(s) : 6 channels
Channel layout : L R C LFE Ls Rs
Sampling rate : 48.0 kHz
Frame rate : 31.250 FPS (1536 SPF)
Compression mode : Lossy
Stream size : 421 MiB (19%)
Title : Original
Language : English
Service kind : Complete Main
Default : No
Forced : No

Text #1
ID : 4
Format : UTF-8
Codec ID : S_TEXT/UTF8
Codec ID/Info : UTF-8 Plain Text
Duration : 1 h 26 min
Bit rate : 57 b/s
Count of elements : 1383
Stream size : 36.5 KiB (0%)
Language : English
Default : No
Forced : No

Text #2
ID : 5
Format : UTF-8
Codec ID : S_TEXT/UTF8
Codec ID/Info : UTF-8 Plain Text
Duration : 1 h 28 min
Bit rate : 60 b/s
Count of elements : 1508
Stream size : 38.9 KiB (0%)
Title : SDH
Language : English
Default : No
Forced : No

pb.wtf



Скачать Не входи через торрент https://i112.fastpic.ru/big/2020/0924/da/f4a5aafa97ec5351a153b86638fcabda.jpg Скачать фильм Не входи через торрент бесплантно в хорошем качестве Описание: Три молодых британских бездельника планируют ограбить особняк местного хирурга. Проникнув в дом, они довольно быстро находят ... 8.7 10 6
Торрент: Зарегистрирован [2020-09-24 15:06] · скачан: 92 раз
Статус: √ проверено
Размер: 2.22 GB
Как cкачать? Как скачать Не входи через торрент | qTorrent

% Раздел Тема Автор DL S | L
Фильмы 2019-2020 [DVDrip, WEB-DLRip, HDrip] (DUB, MVO) [ 745 MB ] Не входи / The Owners [2020 WEB-DLRip] bober100 Скачать
1 | 0
Фильмы 2019-2020 [DVDrip, WEB-DLRip, HDrip] (DUB, MVO) [ 1.46 GB ] Не входи / The Owners [2020 WEB-DLRip] bober100 Скачать
12 | 0
Фильмы (WEB-DL 720p, 1080p) [ 5.09 GB ] Не входи / The Owners [2020 WEB-DL 1080p] () Russian Mafia Скачать
13 | 0

28-11-2019 20:33  

Отключить всю рекламу на сайте

    Дорогой пользователь! Огромная просьба, поблагодарите релизера, оцените раздачу и оставьте свои комментарий, если Вы скачали Не входи через торрент бесплатно! Внесите свою лепту в развитие PiratBit!
    Комментировать посты могут только пользователи прошедшие не сложную регистрацию
    Показать сообщения:    

    Не входи через торрент
    Скачать бесплатно Не входи
    Не входи скачать торрент
    Не входи смотреть онлайн
    Cкачать фильм Не входи бесплатно
    Не входи скачать торрент в хорошем качестве
    Не входи смотреть онлайн бесплатно в хорошем качестве


    Вы не можете начинать темы
    Вы не можете отвечать на сообщения
    Вы не можете редактировать свои сообщения
    Вы не можете удалять свои сообщения
    Вы не можете голосовать в опросах
    Вы не можете прикреплять файлы к сообщениям
    Вы можете скачивать файлы