Доктор Стрэндж

Лицензия

Добыча

Дубляж

Уэнсдэй

1 сезон

Тор

Дубляж

В эфире

Дубляж

Там, где раки поют

MVO

Властелин колец

1 сезон

Deluxe

pack

Рекомендуем

30

Пиратка

ВАЖНО

ВАЖНО

Ghostwire

Пиратка

jed

RePack

nioh2

RePack

RDR2

RePack

NEED FOR SPEED™ PAYBACK

RePack

скачать торрент

Кинопоиск HD

Острые козырьки 6 сезон

6 сезон

FAR CRY 6

RePack

скачать торрент

Лицензия

скачать торрент

MVO

1

1 сезон

скачать торрент

1 сезон

скачать торрент

Лицензия

  

Лялька-Руслан и его друг Санька (Евгений Татарский) [1980 г., детский, семейный, экранизация, DVDRip-AVC]

Лялька-Руслан и его друг Санька через торрент pb.wtf

Раздают: 1 [ 0 KB/s ]
Размер: 1.86 GB | Добавлен: 2 года 1 мес. назад | Торрент скачан:16 раз
Смотреть онлайн | Скачать   

19-10-2020 06:50 Лялька-Руслан и его друг Санька Скачать торрент  

Лялька-Руслан и его друг Санька

Год выпуска: 1980
Страна: СССР | Ленфильм
Жанр: детский, семейный, экранизация
Продолжительность: 01:05:28
Перевод: не требуется

Режиссер: Евгений Татарский

В ролях: Дмитрий Аристархов, Тимур Халиков, Стасик Лашин, Виктор Татарский (II), Шура Данилевич, Оксана Познякова, Михаил Пуговкин, Жанна Прохоренко, Анна Лисянская, Оксана Никитина, Изабелла Чирина, Юрий Демченко

Описание: По мотивам повести В.Голявкина "Ты приходи к нам, приходи...". Полная забавных приключений история знакомства и дружбы двух младших школьников, произошедшая с ними во время каникул.

rating

Файл
Формат: MKV
Кодек: x264
Качество: DVDRip-AVC (DVD5)
Видео: MPEG-4 AVC, [email protected], 25.000 fps, 3810 kbps, 0.380 bit/pixel
Аудио: Русский, AC3, 2 chnls, 256 kbps | Оригинал
x264 [info]: frame I:660 Avg QP:17.16 size: 66404
x264 [info]: frame P:26807 Avg QP:19.40 size: 34126
x264 [info]: frame B:70740 Avg QP:20.93 size: 12897
x264 [info]: consecutive B-frames: 5.2% 6.2% 11.0% 32.0% 18.3% 21.6% 3.6% 1.5% 0.4% 0.2% 0.0%
Format : Matroska
Format version : Version 4
File size : 1.86 GiB
Duration : 1 h 5 min
Overall bit rate : 4 070 kb/s
Movie name : Лялька-Руслан и его друг Санька (1980) - Rip by -{am}-
Encoded date : UTC 2020-10-15 07:06:59
Writing application : mkvmerge v7.2.0 ('On Every Street') 32bit built on Sep 13 2014 15:42:11
Writing library : libebml v1.3.0 + libmatroska v1.4.1
Attachments : poster.png

Video
ID : 1
Format : AVC
Format/Info : Advanced Video Codec
Format profile : [email protected]
Format settings : CABAC / 16 Ref Frames
Format settings, CABAC : Yes
Format settings, Reference : 16 frames
Codec ID : V_MPEG4/ISO/AVC
Duration : 1 h 5 min
Bit rate : 3 810 kb/s
Width : 702 pixels
Height : 572 pixels
Display aspect ratio : 4:3
Original display aspect rat : 4:3
Frame rate mode : Constant
Frame rate : 25.000 FPS
Color space : YUV
Chroma subsampling : 4:2:0
Bit depth : 8 bits
Scan type : Progressive
Bits/(Pixel*Frame) : 0.380
Stream size : 1.74 GiB (94%)
Title : Lyalka.Ruslan.i.ego.drug.Sanka.1980.{am}.748.Rus
Writing library : x264 core 161 r3018+53 18a1d6c t_mod_New [(8 & 10)[email protected] X86_64]
Encoding settings : cabac=1 / ref=16 / deblock=1:-3:-2 / analyse=0x3:0x113 / me=umh / subme=11 / psy=1 / fade_compensate=0.00 / psy_rd=1.00:0.20 / mixed_ref=1 / me_range=64 / chroma_me=1 / trellis=2 / 8x8dct=1 / cqm=2 / deadzone=21,11 / fast_pskip=0 / chroma_qp_offset=-5 / threads=18 / lookahead_threads=4 / sliced_threads=0 / nr=0 / decimate=0 / interlaced=0 / bluray_compat=0 / constrained_intra=0 / fgo=0 / bframes=10 / b_pyramid=2 / b_adapt=2 / b_bias=0 / direct=3 / weightb=1 / open_gop=0 / weightp=2 / keyint=250 / keyint_min=25 / scenecut=40 / intra_refresh=0 / rc_lookahead=40 / rc=crf / mbtree=0 / crf=17.0000 / qcomp=0.60 / qpmin=0:0:0 / qpmax=30:30:30 / qpstep=4 / vbv_maxrate=50000 / vbv_bufsize=62500 / crf_max=30.0 / nal_hrd=none / filler=0 / ip_ratio=1.40 / pb_ratio=1.30 / aq=3:1.00 / aq-sensitivity=10.00 / aq-factor=1.00:1.00:1.00 / aq2=0 / aq3=0
Language : Russian
Default : Yes
Forced : No
Color range : Limited
Color primaries : BT.601 PAL
Transfer characteristics : BT.470 System B/G
Matrix coefficients : BT.470 System B/G

Audio
ID : 2
Format : AC-3
Format/Info : Audio Coding 3
Commercial name : Dolby Digital
Codec ID : A_AC3
Duration : 1 h 5 min
Bit rate mode : Constant
Bit rate : 256 kb/s
Channel(s) : 2 channels
Channel layout : L R
Sampling rate : 48.0 kHz
Frame rate : 31.250 FPS (1536 SPF)
Compression mode : Lossy
Stream size : 120 MiB (6%)
Title : Original
Language : Russian
Service kind : Complete Main
Default : Yes
Forced : No

Menu
00:00:00.000 : :Глава 1
00:06:00.000 : :Глава 2
00:11:56.640 : :Глава 3
00:17:52.800 : :Глава 4
00:24:03.840 : :Глава 5
00:29:46.560 : :Глава 6
00:35:48.000 : :Глава 7
00:41:40.800 : :Глава 8
00:47:39.840 : :Глава 9
00:53:38.880 : :Глава 10
00:59:33.600 : :Глава 11
скриншот  скриншот  скриншот  скриншот  скриншот  скриншот  

скриншот  скриншот  скриншот  скриншот  скриншот  скриншот  

скриншот  скриншот  скриншот  скриншот  скриншот  скриншот  

скриншот  скриншот  скриншот  скриншот  скриншот  скриншот  



Скачать Лялька-Руслан и его друг Санька через торрент https://img11.lostpic.net/2020/10/17/787dff0f2a5008226fc931dbb28edb7f.th.png Скачать, смотреть онлайн Лялька-Руслан и его друг Санька бесплантно в хорошем качестве Описание: По мотивам повести В.Голявкина "Ты приходи к нам, приходи...". Полная забавных приключений история знакомства и дружбы двух ... 10 10 1
Info! Золотая раздача, скачанное не засчитывается.
Торрент: Зарегистрирован [2020-10-19 06:50] · скачан: 16 раз
Статус: √ проверено
Размер: 1.86 GB
Как cкачать? Как скачать Лялька-Руслан и его друг Санька через торрент | UTorrent

28-11-2019 20:33  


Отключить вcю реклaмy на сайте, в т.ч. и в плеере онлайн просмотра!

    Дорогой пользователь! Огромная просьба, поблагодарите релизера, оцените раздачу и оставьте свои комментарий, если Вы скачали Лялька-Руслан и его друг Санька через торрент бесплатно!!
    Комментировать посты могут только пользователи прошедшие не сложную регистрацию
    Показать сообщения:    


    Лялька-Руслан и его друг Санька через торрент
    Скачать бесплатно Лялька-Руслан и его друг Санька
    Лялька-Руслан и его друг Санька скачать торрент
    Лялька-Руслан и его друг Санька смотреть онлайн
    Cкачать фильм Лялька-Руслан и его друг Санька бесплатно
    Лялька-Руслан и его друг Санька скачать торрент в хорошем качестве
    Лялька-Руслан и его друг Санька смотреть онлайн бесплатно в хорошем качестве
    Вы не можете начинать темы
    Вы не можете отвечать на сообщения
    Вы не можете редактировать свои сообщения
    Вы не можете удалять свои сообщения
    Вы не можете голосовать в опросах
    Вы не можете прикреплять файлы к сообщениям
    Вы можете скачивать файлы
    Лялька-Руслан и его друг Санька [1980 г., детский, семейный, экранизация, DVDRip-AVC] смотреть онлайн, скачать торрент picoco.icu