Доктор Стрэндж

Лицензия

Добыча

Дубляж

Дом дракона

1 сезон

Тор

Дубляж

В эфире

Дубляж

Там, где раки поют

MVO

Властелин колец

1 сезон

Ultimate

pack

Рекомендуем

30

Пиратка

ВАЖНО

ВАЖНО

Ghostwire

Пиратка

jed

RePack

nioh2

RePack

RDR2

RePack

NEED FOR SPEED™ PAYBACK

RePack

скачать торрент

Кинопоиск HD

Острые козырьки 6 сезон

6 сезон

FAR CRY 6

RePack

скачать торрент

Лицензия

скачать торрент

MVO

1

1 сезон

скачать торрент

1 сезон

скачать торрент

Лицензия

  

Вот и лето прошло... (Александр Игишев) [1972 г., детский, семейный, SATRip-AVC]

Вот и лето прошло... через торрент pb.wtf

Раздают: 1 [ 0 KB/s ]
Размер: 1.41 GB | Добавлен: 2 года 1 мес. назад | Торрент скачан:5 раз
Смотреть онлайн | Скачать   

19-10-2020 07:05 Вот и лето прошло... Скачать торрент  

Вот и лето прошло...

Год выпуска: 1972
Страна: СССР | Беларусьфильм
Жанр: детский, семейный
Продолжительность: 01:03:15
Перевод: не требуется

Режиссер: Александр Игишев

В ролях: Леонид Наумов, Владимир Станкевич, Борис Гитин, Галина Макарова, Леонид Каневский, Мария Зинкевич

Описание: Тёмка прощается с детским садом и воспитательницей - завтра он пойдет в первый класс. Для него начнется школьная жизнь, но ему нужно еще завершить много дел. Тёма закладывает кирпичом лужу во дворе, признается дворнику, что разбил стекло, навещает в больнице больного друга. Настоящая жизнь только начинается...



Файл
Формат: MKV
Кодек: x264
Качество: SATRip-AVC (DVB)
Видео: MPEG-4 AVC, [email protected], 25.000 fps, 2984 kbps, 0.290 bit/pixel
Аудио: Русский, AC3, 2 chnls, 192 kbps | Оригинал
x264 [info]: frame I:513 Avg QP:16.42 size: 56631
x264 [info]: frame P:24301 Avg QP:18.84 size: 28614
x264 [info]: frame B:70083 Avg QP:20.18 size: 9866
x264 [info]: consecutive B-frames: 3.3% 6.6% 12.3% 24.3% 19.6% 29.0% 3.3% 1.1% 0.3% 0.3% 0.0%
Format : Matroska
Format version : Version 4
File size : 1.41 GiB
Duration : 1 h 3 min
Overall bit rate : 3 179 kb/s
Movie name : Вот и лето прошло... (1972) - Rip by -{am}-
Encoded date : UTC 2020-10-17 19:36:52
Writing application : mkvmerge v7.2.0 ('On Every Street') 32bit built on Sep 13 2014 15:42:11
Writing library : libebml v1.3.0 + libmatroska v1.4.1
Attachments : poster.png

Video
ID : 1
Format : AVC
Format/Info : Advanced Video Codec
Format profile : [email protected]
Format settings : CABAC / 16 Ref Frames
Format settings, CABAC : Yes
Format settings, Reference : 16 frames
Codec ID : V_MPEG4/ISO/AVC
Duration : 1 h 3 min
Bit rate : 2 984 kb/s
Width : 720 pixels
Height : 572 pixels
Display aspect ratio : 4:3
Frame rate mode : Constant
Frame rate : 25.000 FPS
Color space : YUV
Chroma subsampling : 4:2:0
Bit depth : 8 bits
Scan type : Progressive
Bits/(Pixel*Frame) : 0.290
Stream size : 1.32 GiB (94%)
Title : Vot.i.leto.proshlo.1972.{am}.768.Rus
Writing library : x264 core 160 r3007+53 ab26477 t_mod_New [(8 & 10)[email protected] X86_64]
Encoding settings : cabac=1 / ref=16 / deblock=1:-3:-1 / analyse=0x3:0x113 / me=umh / subme=11 / psy=1 / fade_compensate=0.00 / psy_rd=1.00:0.20 / mixed_ref=1 / me_range=64 / chroma_me=1 / trellis=2 / 8x8dct=1 / cqm=2 / deadzone=21,11 / fast_pskip=0 / chroma_qp_offset=-5 / threads=18 / lookahead_threads=4 / sliced_threads=0 / nr=0 / decimate=0 / interlaced=0 / bluray_compat=0 / constrained_intra=0 / fgo=0 / bframes=10 / b_pyramid=2 / b_adapt=2 / b_bias=0 / direct=3 / weightb=1 / open_gop=0 / weightp=2 / keyint=250 / keyint_min=25 / scenecut=40 / intra_refresh=0 / rc_lookahead=40 / rc=crf / mbtree=0 / crf=18.0000 / qcomp=0.60 / qpmin=0:0:0 / qpmax=69:69:69 / qpstep=4 / vbv_maxrate=50000 / vbv_bufsize=62500 / crf_max=30.0 / nal_hrd=none / filler=0 / ip_ratio=1.40 / pb_ratio=1.30 / aq=3:1.00 / aq-sensitivity=10.00 / aq-factor=1.00:1.00:1.00 / aq2=0 / aq3=0
Language : Russian
Default : Yes
Forced : No

Audio
ID : 2
Format : AC-3
Format/Info : Audio Coding 3
Commercial name : Dolby Digital
Codec ID : A_AC3
Duration : 1 h 3 min
Bit rate mode : Constant
Bit rate : 192 kb/s
Channel(s) : 2 channels
Channel layout : L R
Sampling rate : 48.0 kHz
Frame rate : 31.250 FPS (1536 SPF)
Compression mode : Lossy
Stream size : 86.9 MiB (6%)
Title : Original
Language : Russian
Service kind : Complete Main
Default : Yes
Forced : No
скриншот  скриншот  скриншот  скриншот  скриншот  

скриншот  скриншот  скриншот  скриншот  скриншот  

скриншот  скриншот  скриншот  скриншот  скриншот  

скриншот  скриншот  скриншот  скриншот  скриншот  



Скачать Вот и лето прошло... через торрент https://img11.lostpic.net/2020/10/14/31b483db91c4168bd0de48ae3579f414.th.png Скачать, смотреть онлайн Вот и лето прошло... бесплантно в хорошем качестве Описание: Тёмка прощается с детским садом и воспитательницей - завтра он пойдет в первый класс. Для него начнется школьная жизнь, но ему ... 10 10 1
Info! Золотая раздача, скачанное не засчитывается.
Торрент: Зарегистрирован [2020-10-19 07:05] · скачан: 5 раз
Статус: √ проверено
Размер: 1.41 GB
Как cкачать? Как скачать Вот и лето прошло... через торрент | UTorrent

28-11-2019 20:33  


Отключить вcю реклaмy на сайте, в т.ч. и в плеере онлайн просмотра!

    Дорогой пользователь! Огромная просьба, поблагодарите релизера, оцените раздачу и оставьте свои комментарий, если Вы скачали Вот и лето прошло... через торрент бесплатно!!
    Комментировать посты могут только пользователи прошедшие не сложную регистрацию
    Показать сообщения:    


    Вот и лето прошло... через торрент
    Скачать бесплатно Вот и лето прошло...
    Вот и лето прошло... скачать торрент
    Вот и лето прошло... смотреть онлайн
    Cкачать фильм Вот и лето прошло... бесплатно
    Вот и лето прошло... скачать торрент в хорошем качестве
    Вот и лето прошло... смотреть онлайн бесплатно в хорошем качестве
    Вы не можете начинать темы
    Вы не можете отвечать на сообщения
    Вы не можете редактировать свои сообщения
    Вы не можете удалять свои сообщения
    Вы не можете голосовать в опросах
    Вы не можете прикреплять файлы к сообщениям
    Вы можете скачивать файлы
    Вот и лето прошло... [1972 г., детский, семейный, SATRip-AVC] смотреть онлайн, скачать торрент picoco.icu