Всегда рабочее зеркало без VPN и Proxy просто перед .vidak.icu напиши любое слово или цифру, Пример http://p654.vidak.icu

Лицензия

MVO

1 сезон

1

1 сезон

iTunes

1 сезон

13

1 сезон

Deluxe

pack

Рекомендуем

Repack

30

ВАЖНО

RePack

MK11

RePack

jed

RePack

fifa19

RePack

RDR2

RePack

NEED FOR SPEED™ PAYBACK

Кинопоиск HD

6 сезон

 Острые козырьки 6 сезон

Все сериалы

все сериалы на PB.wtf

RePack

FAR CRY 5
  
Magnet ссылка

Горячие Вспышки / Hot Flashes (Leonard Kirtman) [1984 г., Classic, WEBRip] pb.wtf

Горячие Вспышки через торрент pb.wtf

Размер: 1.37 GB | Добавлен: 1 год 9 мес. назад | Торрент скачан:230 раз
Смотреть онлайн Горячие Вспышки | Скачать    Ребята, помогите собрать деньги на оплату серверов!!!

21-10-2020 06:21 Горячие Вспышки Скачать торрент  

Горячие Вспышки / Hot Flashes
Год выпуска: 1984

Страна: США

Жанр: Classic

Продолжительность: 01:16:09

Режиссер: Leonard Kirtman

rating

В ролях: Leonard Kirtman, Kristara Barrington, Nicole Blanc, Beverly Bliss, Crystal Breeze, Zebedy Colt, Tracy Duzit, Nick Niter, Dorothy Onan, Francois Papillon, Steve Powers, Jimmy Starr…

Описание: Channel 69 has the wildest evening news show in Southern California. Three beautiful prime time anchors probe the depths of local stories. From hands on investigations into the latest marriage techniques to explorations of international cultures, intermixed with outrageous advertisements for unbelievable products, these reporters go far into their investigations.
Качество: WEBRip
Формат: MP4
Видео: 852x480, AVC, 2406 Кбит/сек
Аудио: Английский, AC3, 1 ch, 160 Кбит/сек
Видео
Идентификатор : 1
Формат : AVC
Формат/Информация : Advanced Video Codec
Профиль формата : [email protected]
Настройки формата : CABAC / 4 Ref Frames
Параметр CABAC формата : Да
Параметр RefFrames формата : 4 кадра
Идентификатор кодека : avc1
Идентификатор кодека/Информация : Advanced Video Coding
Продолжительность : 1 ч. 16 м.
Битрейт : 2406 Кбит/сек
Ширина : 852 пикселя
Высота : 480 пикселей
Соотношение сторон : 16:9
Режим частоты кадров : Переменный
Частота кадров : 23,976 (24000/1001) кадра/сек
Минимальная частота кадров : 23,810 кадра/сек
Максимальная частота кадров : 24000,000 кадров/сек
Цветовое пространство : YUV
Субдискретизация насыщенности : 4:2:0
Битовая глубина : 8 бит
Тип развёртки : Прогрессивная
Бит/(Пиксели*Кадры) : 0.245
Размер потока : 1,28 Гбайт (94%)
Библиотека кодирования : x264 core 152 r2851 ba24899
Настройки программы : cabac=1 / ref=4 / deblock=1:0:0 / analyse=0x3:0x113 / me=umh / subme=9 / psy=1 / psy_rd=1.00:0.00 / mixed_ref=1 / me_range=16 / chroma_me=1 / trellis=1 / 8x8dct=1 / cqm=0 / deadzone=21,11 / fast_pskip=1 / chroma_qp_offset=-2 / threads=9 / lookahead_threads=1 / sliced_threads=0 / nr=0 / decimate=1 / interlaced=0 / bluray_compat=0 / constrained_intra=0 / bframes=4 / b_pyramid=2 / b_adapt=1 / b_bias=0 / direct=3 / weightb=1 / open_gop=0 / weightp=2 / keyint=240 / keyint_min=23 / scenecut=40 / intra_refresh=0 / rc_lookahead=50 / rc=2pass / mbtree=1 / bitrate=2406 / ratetol=1.0 / qcomp=0.60 / qpmin=0 / qpmax=69 / qpstep=4 / cplxblur=20.0 / qblur=0.5 / vbv_maxrate=20000 / vbv_bufsize=25000 / nal_hrd=none / filler=0 / ip_ratio=1.40 / aq=1:1.00
Язык : English
Дата кодирования : UTC 2017-07-16 16:29:40
Дата пометки : UTC 2017-07-16 16:29:40
Codec configuration box : avcC

Аудио
Идентификатор : 2
Формат : AC-3
Формат/Информация : Audio Coding 3
Коммерческое название : Dolby Digital
Идентификатор кодека : ac-3
Продолжительность : 1 ч. 16 м.
Вид битрейта : Постоянный
Битрейт : 160 Кбит/сек
Каналы : 1 канал
ChannelLayout : C
Частота : 48,0 КГц
Частота кадров : 31,250 кадров/сек (1536 SPF)
Метод сжатия : С потерями
Размер потока : 87,1 Мбайт (6%)
Заголовок : English
Язык : English
ServiceKind/String : Complete Main
Default : Да
AlternateGroup/String : 1
Дата кодирования : UTC 2017-07-16 16:29:40
Дата пометки : UTC 2017-07-16 16:29:40

скриншот   скриншот   скриншот   скриншот  
pb.wtf



pack Скачать Горячие Вспышки через торрент https://pic1.kartinco.top/images/12/onj4x.jpg Скачать, смотреть онлайн Горячие Вспышки бесплантно в хорошем качестве Описание: Channel 69 has the wildest evening news show in Southern California. Three beautiful prime time anchors probe the depths of local ... 10 10 7
Торрент: Зарегистрирован [2020-10-21 06:21] · скачан: 230 раз
Статус: √ проверено
Размер: 1.37 GB
Как cкачать? Как скачать Горячие Вспышки через торрент | UTorrent

28-11-2019 20:33  

Отключить вcю реклaмy на сайте

    Дорогой пользователь! Огромная просьба, поблагодарите релизера, оцените раздачу и оставьте свои комментарий, если Вы скачали Горячие Вспышки через торрент бесплатно!
    Комментировать посты могут только пользователи прошедшие не сложную регистрацию
    Показать сообщения:    

    Горячие Вспышки через торрент
    Скачать бесплатно Горячие Вспышки
    Горячие Вспышки скачать торрент
    Горячие Вспышки смотреть онлайн
    Cкачать фильм Горячие Вспышки бесплатно
    Горячие Вспышки скачать торрент в хорошем качестве
    Горячие Вспышки смотреть онлайн бесплатно в хорошем качестве


    Вы не можете начинать темы
    Вы не можете отвечать на сообщения
    Вы не можете редактировать свои сообщения
    Вы не можете удалять свои сообщения
    Вы не можете голосовать в опросах
    Вы не можете прикреплять файлы к сообщениям
    Вы можете скачивать файлы