Всегда рабочее зеркало без VPN и Proxy просто перед .vidak.icu напиши любое слово или цифру, Пример http://nudv.vidak.icu

MVO

Лицензия

1 сезон

1

1 сезон

iTunes

1 сезон

13

1 сезон

Deluxe

pack

Рекомендуем

Пиратка

30

ВАЖНО

RePack

MK11

RePack

jed

RePack

fifa19

RePack

RDR2

RePack

NEED FOR SPEED™ PAYBACK

Кинопоиск HD

6 сезон

 Острые козырьки 6 сезон

Все сериалы

все сериалы на PB.wtf

RePack

FAR CRY 5

Anonymous, нам критически не хватает 2100 руб. на оплату серверов и переферии за МАЙ, помоги нам пожалуйста, вся надежда только на тебя. В благодарность мы отключим тебе всю рекламу на сайте!

×
  
Magnet ссылка

Субура / Suburra: Blood on Rome / Сезон: 3 / Серии: 1-6 из 6 (Джузеппе Капотонди, Андреа Молайоли, Микеле Плачидо) [2020, Драма, криминал, WEB-DLRip] MVO [Jaskier] pb.wtf

Субура через торрент pb.wtf

Размер: 3.33 GB | Добавлен: 1 год 7 мес. назад | Торрент скачан:43 раза
Смотреть онлайн Субура | Скачать    Ребята, помогите собрать деньги на оплату серверов!!!

06-11-2020 04:51 Субура Скачать торрент  

Субура | Suburra: Blood on Rome
Год выпуска: 2020
Страна: Италия
Студия: Bartlebyfilm,Cattleya, NetFlix
Жанр: Драма, криминал
Продолжительность: 00:45:00
Перевод: Профессиональный (многоголосый закадровый) | Jaskier
Субтитры: отсутствуют

Режиссёр: Джузеппе Капотонди, Андреа Молайоли, Микеле Плачидо

В ролях: Филиппо Нигро, Франческо Аквароли, Джакомо Феррара, Клаудия Джерини, Алессандро Борги, Адамо Дионизи и другие

Описание: Субурра - это один из старейших римских районов, который некогда считался одним из самых грязных и опасных на территории города. Здесь процветала торговля, проституция, а в воздухе царила атмосфера обмана и преступности. Кажется, что те времена должны были уже давно пройти. Однако время не властно над этим райончиком. До сих пор в Субурре дела обстоят так же, как и много веков тому назад. К тому же культурная столица, имея при себе такой пригород не сыскала туристической популярности, а только получила негативный оттенок. Этот район живет своей жизнью. Здесь люди совершенно иначе мыслят, совершенно иначе смотрят на мир. Криминальная жизнь процветает, а молодые люди, вместо того, чтобы идти получать образование, идут в воровскую сферу, нанимаются телохранителями или киллерами или же идут в игорный бизнес, который здесь начинает процветать и замахивается на лавры самого Лас-Вегаса!расследования преступлений в Сан-Франциско.

rating

Качество: WEB-DLRip
Формат: | XviD | Avi

Видео: ~ 1400 kbps, 704x384, 23.976 fps
Аудио RUS: mp3, 48 KHz, 2 ch, 128 kbps
Аудио ITA: mp3, 48 KHz, 2 ch, 128 kbps


Реклама: Присутствует звуковая (два раза в начале и конце по 10 сек.)
скриншот  скриншот  скриншот  

Общее
Полное имя : C:\Suburra. Season 3 (WEB-DLRip l 400p l Jaskier)\Suburra.S03E01.WEB-DLRip.Rus.Ita.Jaskier.avi
Формат : AVI
Формат/Информация : Audio Video Interleave
Размер файла : 530 Мбайт
Продолжительность : 44 м. 32 с.
Общий поток : 1664 Кбит/сек
Программа кодирования : VirtualDubMod 1.5.10.3 | www.virtualdub-fr.org || (build 2550/release)
Библиотека кодирования : VirtualDubMod build 2550/release

Видео
Идентификатор : 0
Формат : MPEG-4 Visual
Профиль формата : Advanced Simple@L5
Настройки формата : BVOP1 / Custom Matrix
Параметр BVOP формата : 1
Параметр QPel формата : Нет
Параметр GMC формата : Без точки перехода
Параметр матрицы формата : Выборочная
Идентификатор кодека : XVID
Идентификатор кодека/Подсказка : XviD
Продолжительность : 44 м. 32 с.
Битрейт : 1331 Кбит/сек
Ширина : 704 пикселя
Высота : 384 пикселя
Соотношение сторон : 1,85:1
Частота кадров : 25,000 кадров/сек
Цветовое пространство : YUV
Субдискретизация насыщенности : 4:2:0
Битовая глубина : 8 бит
Тип развёртки : Прогрессивная
Метод сжатия : С потерями
Бит/(Пиксели*Кадры) : 0.197
Размер потока : 424 Мбайт (80%)
Библиотека кодирования : XviD 73

Аудио #1
Идентификатор : 1
Формат : MPEG Audio
Версия формата : Version 1
Профиль формата : Layer 3
Настройки формата : Joint stereo / MS Stereo
Идентификатор кодека : 55
Идентификатор кодека/Подсказка : MP3
Продолжительность : 44 м. 32 с.
Вид битрейта : Постоянный
Битрейт : 128 Кбит/сек
Каналы : 2 канала
Частота : 48,0 КГц
Метод сжатия : С потерями
Размер потока : 40,8 Мбайт (8%)
Выравнивание : Соединение по промежуткам

Аудио #2
Идентификатор : 2
Формат : MPEG Audio
Версия формата : Version 1
Профиль формата : Layer 3
Настройки формата : Joint stereo / MS Stereo
Идентификатор кодека : 55
Идентификатор кодека/Подсказка : MP3
Продолжительность : 44 м. 32 с.
Вид битрейта : Постоянный
Битрейт : 128 Кбит/сек
Каналы : 2 канала
Частота : 48,0 КГц
Метод сжатия : С потерями
Размер потока : 40,8 Мбайт (8%)
Выравнивание : Соединение по промежуткам

pb.wtf



Скачать Субура через торрент https://img11.lostpic.net/2020/11/06/fb2ae2bf89b057b2cc2b06697cdf5b83.png Скачать, смотреть онлайн Субура бесплантно в хорошем качестве Описание: Субурра - это один из старейших римских районов, который некогда считался одним из самых грязных и опасных на территории города. ... 9.8 10 4
Торрент: Зарегистрирован [2020-11-06 04:51] · скачан: 43 раз
Статус: √ проверено
Размер: 3.33 GB
Как cкачать? Как скачать Субура через торрент | UTorrent

% Раздел Тема Автор DL S | L
Зарубежные сериалы [ 5.65 GB ] Субура / Suburra: Blood on Rome / Сезон: 3 / Серии: 1-6 из 6 [2020 WEB-DL 720p] MVO [Jaskier] bober100 Скачать
1 | 0
Зарубежные сериалы [ 9.04 GB ] Субура / Suburra: Blood on Rome / Сезон: 3 / Серии: 1-6 из 6 [2020 WEB-DL 1080p] MVO [Jaskier] bober100 Скачать
1 | 0

28-11-2019 20:33  

Отключить всю рекламу на сайте

    Дорогой пользователь! Огромная просьба, поблагодарите релизера, оцените раздачу и оставьте свои комментарий, если Вы скачали Субура через торрент бесплатно!
    Комментировать посты могут только пользователи прошедшие не сложную регистрацию
    Показать сообщения:    

    Субура через торрент
    Скачать бесплатно Субура
    Субура скачать торрент
    Субура смотреть онлайн
    Cкачать фильм Субура бесплатно
    Субура скачать торрент в хорошем качестве
    Субура смотреть онлайн бесплатно в хорошем качестве


    Вы не можете начинать темы
    Вы не можете отвечать на сообщения
    Вы не можете редактировать свои сообщения
    Вы не можете удалять свои сообщения
    Вы не можете голосовать в опросах
    Вы не можете прикреплять файлы к сообщениям
    Вы можете скачивать файлы