Всегда рабочее зеркало без VPN и Proxy просто перед .vidak.icu напиши любое слово или цифру, Пример http://2lm0.vidak.icu

Лицензия

MVO

1 сезон

1

1 сезон

iTunes

1 сезон

13

1 сезон

Deluxe

pack

Рекомендуем

Repack

30

ВАЖНО

RePack

MK11

RePack

jed

RePack

fifa19

RePack

RDR2

RePack

NEED FOR SPEED™ PAYBACK

Кинопоиск HD

6 сезон

 Острые козырьки 6 сезон

Все сериалы

все сериалы на PB.wtf

RePack

FAR CRY 5
  
Magnet ссылка

Подчинение Эммы Маркс / The Submission Of Emma Marx (Eddie Powell, Jacky St. James) [2013 г., Bondage, Couples, Anal, Oral, Feature, WEBRip 1080p, Оригинал] pb.wtf

Подчинение Эммы Маркс через торрент pb.wtf

Размер: 3.26 GB | Добавлен: 1 год 9 мес. назад | Торрент скачан:279 раз
Смотреть онлайн Подчинение Эммы Маркс | Скачать    Ребята, помогите собрать деньги на оплату серверов!!!

11-11-2020 13:55 Подчинение Эммы Маркс Скачать торрент  

Подчинение Эммы Маркс / The Submission Of Emma MarxГод выпуска: 2013
Страна: США
Студия: New Sensations Erotic Stories
Жанр: Bondage, Couples, Anal, Oral, Feature
Продолжительность: 01:56:41
Перевод: Оригинал (английский)
Субтитры: отсутствуют

Режиссер: Eddie Powell, Jacky St. James
В ролях: Penny Pax, Riley Reid, Van Wylde, Richie Calhoun

Описание: By all accounts, Emma Marx is a beautiful, confident, well-adjusted woman in the adult DVD The Submission Of Emma Marx. Unfortunately when it comes to love and romance, she (Penny Pax) has found all of her previous relationships to be a bit routine and mundane.Suddenly, that is all changed by a chance encounter with a handsome and mysterious man. He introduces her to a world she had only dared to fantasize of -- a world of erotic sex, role-play and BDSM. She questions how a man can so easily strip away her inhibitions and replace them with lust and desire.How is it that he has such control over her? Why does she like it so much? Her journey of self-discovery and sexual awakening, however, may come with a price. What happens when the greatest love you''ve ever known forces you to face your greatest obstacle - yourself?
Судя по всему, Эмма Маркс-красивая, уверенная в себе, хорошо приспособленная женщина во взрослом DVD The Submission Of Emma Marx. К сожалению, когда дело доходит до любви и романтики, она (Пенни Пакс) обнаружила, что все ее предыдущие отношения были немного рутинными и приземленными.Внезапно все меняется от случайной встречи с красивым и загадочным мужчиной. Он вводит ее в мир, о котором она только смела мечтать-мир эротического секса, ролевых игр и БДСМ. Она задается вопросом, как мужчина может так легко снять ее запреты и заменить их похотью и желанием.Как получилось, что он имеет над ней такую Влacть? Почему ей это так нравится? Однако ее путешествие к самопознанию и сексуальному пробуждению может иметь свою цену. Что происходит, когда величайшая любовь, которую вы когда - либо знали, заставляет вас столкнуться с вашим величайшим препятствием- самим собой?

Качество: WEBRip 1080p
Формат: MP4
Видео кодек: H.264
Аудио кодек: AAC
Видео: 1920x1080 (16:9), 23.976 fps ~ 3845 Kbps
Аудио: 48 KHz, 2 ch ~ 153 Kb/s
скриншот   скриншот   скриншот   скриншот   скриншот   скриншот   скриншот  

Общее
Полное имя : J:\wot\The.Submission.Of.Emma.Marx.2013.1080p.mp4
Формат : MPEG-4
Профиль формата : Base Media
Идентификатор кодека : isom (isom/iso2/avc1/mp41)
Размер файла : 3,26 Гбайт
Продолжительность : 1 ч. 56 м.
Общий поток : 4 005 Кбит/сек
Программа кодирования : Lavf55.41.100

Видео
Идентификатор : 1
Формат : AVC
Формат/Информация : Advanced Video Codec
Профиль формата : [email protected]
Настройки формата : 2 Ref Frames
Параметр CABAC формата : Нет
Параметр RefFrames формата : 2 кадра
Параметр GOP формата : M=2, N=48
Идентификатор кодека : avc1
Идентификатор кодека/Информация : Advanced Video Coding
Продолжительность : 1 ч. 56 м.
Битрейт : 3 846 Кбит/сек
Ширина : 1 920 пикселей
Высота : 1 080 пикселей
Соотношение сторон : 16:9
Режим частоты кадров : Постоянный
Частота кадров : 23,976 (24000/1001) кадра/сек
Цветовое пространство : YUV
Субдискретизация насыщенности : 4:2:0
Битовая глубина : 8 бит
Тип развёртки : Прогрессивная
Бит/(Пиксели*Кадры) : 0.077
Размер потока : 3,13 Гбайт (96%)
Цветовой диапазон : Limited
Основные цвета : BT.709
Характеристики трансфера : BT.709
Коэффициенты матрицы : BT.709
Codec configuration box : avcC

Аудио
Идентификатор : 2
Формат : AAC LC
Формат/Информация : Advanced Audio Codec Low Complexity
Идентификатор кодека : mp4a-40-2
Продолжительность : 1 ч. 56 м.
Вид битрейта : Постоянный
Битрейт : 154 Кбит/сек
Каналы : 2 канала
Channel layout : L R
Частота : 48,0 КГц
Частота кадров : 46,875 кадров/сек (1024 SPF)
Метод сжатия : С потерями
Размер потока : 128 Мбайт (4%)
Default : Да
Alternate group : 1

pb.wtf



pack Скачать Подчинение Эммы Маркс через торрент https://pic1.kartinco.top/images/12/oitf9.jpg Скачать, смотреть онлайн Подчинение Эммы Маркс бесплантно в хорошем качестве Описание: By all accounts, Emma Marx is a beautiful, confident, well-adjusted woman in the adult DVD The Submission Of Emma Marx. ... 9.4 10 11
Info! Золотая раздача, скачанное не засчитывается.
Торрент: Зарегистрирован [2020-11-11 13:55] · скачан: 279 раз
Статус: √ проверено
Размер: 3.26 GB
Как cкачать? Как скачать Подчинение Эммы Маркс через торрент | UTorrent

% Раздел Тема Автор DL S | L
Порно фильмы HD [ 7.51 GB ] Подчинение Эммы Маркс: Развиваться / The Submission Of Emma Marx: Evolved [2017 Feature Anal DP Oral All Sex WEB-DL 1080p] Split Scenes nn99nn Скачать
1 | 0
Порно фильмы с сюжетом [ 1.92 GB ] Подчинение Эммы Маркс: Развиваться / The Submission Of Emma Marx: Evolved [2017 Feature Anal DP Oral All Sex WEB-DLRip 540p] Split Scenes sheker187 Скачать
1 | 0
Порно фильмы с сюжетом [ 1.52 GB ] Подчинение Эммы Маркс: Незащищенная / The Submission Of Emma Marx: Exposed [2016 Feature Bondage Couples Big Budget WEB-DLRip 480p] Split Scenes sheker187 Скачать
1 | 0
Порно фильмы с сюжетом [ 1.61 GB ] Подчинение Эммы Маркс: Границы / The Submission Of Emma Marx : Boundaries [2015 Big Budget Bondage Couples Feature Made For Women Prebooks WEB-DLRip Оригинал] [email protected] Скачать
1 | 0

28-11-2019 20:33  

Отключить вcю реклaмy на сайте

11-11-2020 14:58 Подчинение Эммы Маркс Скачать торрент  

pack
    Дорогой пользователь! Огромная просьба, поблагодарите релизера, оцените раздачу и оставьте свои комментарий, если Вы скачали Подчинение Эммы Маркс через торрент бесплатно!
    Комментировать посты могут только пользователи прошедшие не сложную регистрацию
    Показать сообщения:    

    Подчинение Эммы Маркс через торрент
    Скачать бесплатно Подчинение Эммы Маркс
    Подчинение Эммы Маркс скачать торрент
    Подчинение Эммы Маркс смотреть онлайн
    Cкачать фильм Подчинение Эммы Маркс бесплатно
    Подчинение Эммы Маркс скачать торрент в хорошем качестве
    Подчинение Эммы Маркс смотреть онлайн бесплатно в хорошем качестве


    Вы не можете начинать темы
    Вы не можете отвечать на сообщения
    Вы не можете редактировать свои сообщения
    Вы не можете удалять свои сообщения
    Вы не можете голосовать в опросах
    Вы не можете прикреплять файлы к сообщениям
    Вы можете скачивать файлы