Доктор Стрэндж

Лицензия

Добыча

Дубляж

Дом дракона

1 сезон

Тор

Дубляж

В эфире

Дубляж

Там, где раки поют

MVO

Властелин колец

1 сезон

GLOBAL

pack

Рекомендуем

30

Пиратка

ВАЖНО

ВАЖНО

Ghostwire

Пиратка

jed

RePack

nioh2

RePack

RDR2

RePack

NEED FOR SPEED™ PAYBACK

RePack

скачать торрент

Кинопоиск HD

Острые козырьки 6 сезон

6 сезон

FAR CRY 6

RePack

скачать торрент

Лицензия

скачать торрент

MVO

1

1 сезон

скачать торрент

1 сезон

скачать торрент

Лицензия

  

Прощайте, коза и велосипед (Батрбек Дзбоев) [1971 г., детский, семейный, короткометражный, SATRip-AVC]

Прощайте, коза и велосипед через торрент pb.wtf

Размер: 745 MB | Добавлен: 2 года назад | Торрент скачан:5 раз
Смотреть онлайн | Скачать   

15-11-2020 11:56 Прощайте, коза и велосипед Скачать торрент  

Прощайте, коза и велосипед

Год выпуска: 1971
Страна: СССР | Северо-Осетинская студия телефильмов
Жанр: детский, семейный, короткометражный
Продолжительность: 00:36:52
Перевод: не требуется

Режиссер: Батрбек 'Бабле' Дзбоев

В ролях: Олег Басаев, Таймураз Доев, Коста Сланов, А. Цибиров, З. Дзброева, Р. Дзуцева, В. Каргинова, М. Коченов

Описание: Действие происходит в маленьком ауле Северной Осетии. О дружбе мальчиков Бутуша и Ахсара, потерявших в годы Великой Отечественной войны своих отцов, о доброте и отзывчивости окружающих их людей.



Файл
Формат: MKV
Кодек: x264
Качество: SATRip-AVC (DVB)
Видео: MPEG-4 AVC, [email protected], 25.000 fps, 2629 kbps, 0.255 bit/pixel
Аудио: Русский, AC3, 2 chnls, 192 kbps | Оригинал
x264 [info]: frame I:353 Avg QP:17.93 size: 57965
x264 [info]: frame P:13561 Avg QP:19.63 size: 27169
x264 [info]: frame B:41408 Avg QP:20.77 size: 8170
x264 [info]: consecutive B-frames: 3.1% 5.5% 10.3% 22.5% 21.7% 29.5% 4.8% 1.6% 0.5% 0.3% 0.1% 0.1% 0.0% 0.0% 0.0%
Format : Matroska
Format version : Version 4
File size : 745 MiB
Duration : 36 min 52 s
Overall bit rate : 2 824 kb/s
Movie name : Прощайте, коза и велосипед (1971) - Rip by -{am}-
Encoded date : UTC 2020-11-11 01:44:15
Writing application : mkvmerge v7.2.0 ('On Every Street') 32bit built on Sep 13 2014 15:42:11
Writing library : libebml v1.3.0 + libmatroska v1.4.1
Attachments : poster.png

Video
ID : 1
Format : AVC
Format/Info : Advanced Video Codec
Format profile : [email protected]
Format settings : CABAC / 16 Ref Frames
Format settings, CABAC : Yes
Format settings, Reference : 16 frames
Codec ID : V_MPEG4/ISO/AVC
Duration : 36 min 52 s
Bit rate : 2 629 kb/s
Width : 720 pixels
Height : 572 pixels
Display aspect ratio : 4:3
Frame rate mode : Constant
Frame rate : 25.000 FPS
Color space : YUV
Chroma subsampling : 4:2:0
Bit depth : 8 bits
Scan type : Progressive
Bits/(Pixel*Frame) : 0.255
Stream size : 694 MiB (93%)
Title : Proschaite.koza.i.velosiped.1971.{am}.768.Rus
Writing library : x264 core 161 r3018+53 18a1d6c t_mod_New [(8 & 10)[email protected] X86_64]
Encoding settings : cabac=1 / ref=16 / deblock=1:-2:-1 / analyse=0x3:0x113 / me=umh / subme=11 / psy=1 / fade_compensate=0.00 / psy_rd=1.00:0.20 / mixed_ref=1 / me_range=48 / chroma_me=1 / trellis=2 / 8x8dct=1 / cqm=2 / deadzone=21,11 / fast_pskip=0 / chroma_qp_offset=-5 / threads=18 / lookahead_threads=4 / sliced_threads=0 / nr=0 / decimate=0 / interlaced=0 / bluray_compat=0 / constrained_intra=0 / fgo=0 / bframes=14 / b_pyramid=2 / b_adapt=2 / b_bias=0 / direct=3 / weightb=1 / open_gop=0 / weightp=2 / keyint=250 / keyint_min=25 / scenecut=40 / intra_refresh=0 / rc_lookahead=40 / rc=crf / mbtree=0 / crf=18.0000 / qcomp=0.60 / qpmin=0:0:0 / qpmax=30:30:30 / qpstep=4 / vbv_maxrate=50000 / vbv_bufsize=62500 / crf_max=30.0 / nal_hrd=none / filler=0 / ip_ratio=1.40 / pb_ratio=1.30 / aq=3:1.00 / aq-sensitivity=10.00 / aq-factor=1.00:1.00:1.00 / aq2=0 / aq3=0
Language : Russian
Default : Yes
Forced : No

Audio
ID : 2
Format : AC-3
Format/Info : Audio Coding 3
Commercial name : Dolby Digital
Codec ID : A_AC3
Duration : 36 min 52 s
Bit rate mode : Constant
Bit rate : 192 kb/s
Channel(s) : 2 channels
Channel layout : L R
Sampling rate : 48.0 kHz
Frame rate : 31.250 FPS (1536 SPF)
Compression mode : Lossy
Stream size : 50.6 MiB (7%)
Title : Original
Language : Russian
Service kind : Complete Main
Default : Yes
Forced : No
скриншот  скриншот  скриншот  скриншот  

скриншот  скриншот  скриншот  скриншот  

скриншот  скриншот  скриншот  скриншот  

скриншот  скриншот  скриншот  скриншот  

скриншот  скриншот  скриншот  скриншот  



Скачать Прощайте, коза и велосипед через торрент https://img11.lostpic.net/2020/11/13/19acce454bbcd1952627b6be76b4229a.th.png Скачать, смотреть онлайн Прощайте, коза и велосипед бесплантно в хорошем качестве Описание: Действие происходит в маленьком ауле Северной Осетии. О дружбе мальчиков Бутуша и Ахсара, потерявших в годы Великой Отечественной ... 5 10 1
Торрент: Зарегистрирован [2020-11-15 11:56] · скачан: 5 раз
Статус: √ проверено
Размер: 745 MB
Как cкачать? Как скачать Прощайте, коза и велосипед через торрент | UTorrent

28-11-2019 20:33  


Отключить вcю реклaмy на сайте, в т.ч. и в плеере онлайн просмотра!

    Дорогой пользователь! Огромная просьба, поблагодарите релизера, оцените раздачу и оставьте свои комментарий, если Вы скачали Прощайте, коза и велосипед через торрент бесплатно!!
    Комментировать посты могут только пользователи прошедшие не сложную регистрацию
    Показать сообщения:    


    Прощайте, коза и велосипед через торрент
    Скачать бесплатно Прощайте, коза и велосипед
    Прощайте, коза и велосипед скачать торрент
    Прощайте, коза и велосипед смотреть онлайн
    Cкачать фильм Прощайте, коза и велосипед бесплатно
    Прощайте, коза и велосипед скачать торрент в хорошем качестве
    Прощайте, коза и велосипед смотреть онлайн бесплатно в хорошем качестве
    Вы не можете начинать темы
    Вы не можете отвечать на сообщения
    Вы не можете редактировать свои сообщения
    Вы не можете удалять свои сообщения
    Вы не можете голосовать в опросах
    Вы не можете прикреплять файлы к сообщениям
    Вы можете скачивать файлы
    Прощайте, коза и велосипед [1971 г., детский, семейный, короткометражный, SATRip-AVC] смотреть онлайн, скачать торрент picoco.icu