Всегда рабочее зеркало без VPN и Proxy просто перед .vidak.icu напиши любое слово или цифру, Пример http://zpnk.vidak.icu

MVO

MVO

1 сезон

1

1 сезон

iTunes

1 сезон

13

1 сезон

Deluxe

pack

Рекомендуем

Repack

30

ВАЖНО

RePack

MK11

RePack

jed

RePack

fifa19

RePack

RDR2

RePack

NEED FOR SPEED™ PAYBACK

Кинопоиск HD

6 сезон

 Острые козырьки 6 сезон

Все сериалы

все сериалы на PB.wtf

RePack

FAR CRY 5
  
Magnet ссылка

Гранд Тур / The Grand Tour / Сезон: 4 / Серии: 1-2 из 14 (Фил Чурчуорд, Кит Линч Робинсон, Гэвин Уайтхед) [2019, Авто-шоу, WEBRip 2160p] MVO [AlexFilm] pb.wtf

Гранд Тур через торрент pb.wtf

Размер: 48.29 GB | Добавлен: 1 год 7 мес. назад | Торрент скачан:23 раза
Смотреть онлайн Гранд Тур | Скачать    Ребята, помогите собрать деньги на оплату серверов!!!

16-12-2019 05:13 Гранд Тур Скачать торрент  

Гранд Тур / The Grand Tour Год выхода: 2019
Страна: Великобритания
Жанр: Автопередача
Продолжительность: ~01:10:00 серия
Перевод: Профессиональное многоголосое закадровое | AlexFilm
Субтитры: Русские (Full |Amazon|, английские

В ролях: Фил Чурчуорд, Кит Линч Робинсон, Гэвин Уайтхед

Описание: "Гранд Тур" — это новое автомобильное телешоу, созданное бывшими ведущими Top Gear — Джереми Кларксоном, Ричардом Хаммондом и Джеймсом Мэйем. Зрителей ждут автомобильные обзоры, приключения по всему миру, встречи со знаменитостями и юмор, который является непременным атрибутом каждого выпуска.

rating


Качество: WEBRip 2160p
Формат: MKV

Видео: AVC, ~43,6 Mбит/с, 3840x2160, 8 Бит, 25,000 fps, ~0.210 bit/pixel
Аудио Rus: 48 kHz, AC3, 3/2 (L,C,R,l,r) + LFE ch, ~384 kbps avg |Многоголосый закадровый, AlexFilm|
Аудио Eng: 48 kHz, AC3, 3/2 (L,C,R,l,r) + LFE ch, ~640 kbps avg
:

Перевод: Константин Кривоногов
Монтаж и сведение звука: Константин Федосеев
Роли озвучивали:

Екатерина Муравицкая
Андрей Стакионис
Константин Погодаев
Дмитрий Лунёв
Михаил Суслов
Кирилл Патрино


скриншот  скриншот  скриншот  скриншот  
Формат : Matroska
Версия формата : Version 4 / Version 2
Размер файла : 29,1 Гбайт
Продолжительность : 1 ч. 31 м.
Общий поток : 45,5 Мбит/сек
Дата кодирования : UTC 2019-12-15 19:05:14
Программа кодирования : mkvmerge v6.2.0 ('Promised Land') built on Apr 28 2013 12:22:01
Библиотека кодирования : libebml v1.3.0 + libmatroska v1.4.0

Видео
Идентификатор : 1
Формат : AVC
Формат/Информация : Advanced Video Codec
Профиль формата : [email protected]
Настройки формата : CABAC / 5 Ref Frames
Параметр CABAC формата : Да
Параметр RefFrames формата : 5 кадров
Идентификатор кодека : V_MPEG4/ISO/AVC
Продолжительность : 1 ч. 31 м.
Битрейт : 43,6 Мбит/сек
Ширина : 3840 пикселей
Высота : 2160 пикселей
Соотношение сторон : 16:9
Режим частоты кадров : Постоянный
Частота кадров : 25,000 кадров/сек
Цветовое пространство : YUV
Субдискретизация насыщенности : 4:2:0
Битовая глубина : 8 бит
Тип развёртки : Прогрессивная
Бит/(Пиксели*Кадры) : 0.210
Размер потока : 27,9 Гбайт (96%)
Библиотека кодирования : x264 core 157 r2969 d4099dd
Настройки программы : cabac=1 / ref=5 / deblock=1:-3:-3 / analyse=0x3:0x133 / me=umh / subme=10 / psy=1 / psy_rd=1.00:0.00 / mixed_ref=1 / me_range=48 / chroma_me=1 / trellis=2 / 8x8dct=1 / cqm=0 / deadzone=21,11 / fast_pskip=0 / chroma_qp_offset=-2 / threads=12 / lookahead_threads=2 / sliced_threads=0 / nr=0 / decimate=0 / interlaced=0 / bluray_compat=0 / constrained_intra=0 / bframes=8 / b_pyramid=2 / b_adapt=2 / b_bias=0 / direct=3 / weightb=1 / open_gop=0 / weightp=2 / keyint=250 / keyint_min=25 / scenecut=40 / intra_refresh=0 / rc=crf / mbtree=0 / crf=18.0 / qcomp=0.60 / qpmin=0 / qpmax=69 / qpstep=4 / ip_ratio=1.30 / pb_ratio=1.20 / aq=3:0.80
Язык : English
Default : Да
Forced : Нет

Аудио #1
Идентификатор : 2
Формат : AC-3
Формат/Информация : Audio Coding 3
Идентификатор кодека : A_AC3
Продолжительность : 1 ч. 31 м.
Вид битрейта : Постоянный
Битрейт : 384 Кбит/сек
Каналы : 6 каналов
Расположение каналов : Front: L C R, Side: L R, LFE
Частота : 48,0 КГц
Частота кадров : 31,250 кадров/сек (1536 SPF)
Битовая глубина : 16 бит
Метод сжатия : С потерями
Размер потока : 252 Мбайт (1%)
Язык : Russian
ServiceKind/String : Complete Main
Default : Да
Forced : Нет

Аудио #2
Идентификатор : 3
Формат : E-AC-3
Формат/Информация : Enhanced Audio Coding 3
Идентификатор кодека : A_EAC3
Продолжительность : 1 ч. 31 м.
Вид битрейта : Постоянный
Битрейт : 640 Кбит/сек
Каналы : 6 каналов
Расположение каналов : Front: L C R, Side: L R, LFE
Частота : 48,0 КГц
Частота кадров : 187,500 кадров/сек (256 SPF)
Метод сжатия : С потерями
Размер потока : 419 Мбайт (1%)
Язык : English
ServiceKind/String : Complete Main
Default : Нет
Forced : Нет

Текст #1
Идентификатор : 4
Формат : UTF-8
Идентификатор кодека : S_TEXT/UTF8
Идентификатор кодека/Информация : UTF-8 Plain Text
Язык : Russian
Default : Нет
Forced : Нет

Текст #2
Идентификатор : 5
Формат : UTF-8
Идентификатор кодека : S_TEXT/UTF8
Идентификатор кодека/Информация : UTF-8 Plain Text
Язык : English
Default : Нет
Forced : Нет

Меню
00:00:00.000 : en:Amazon Original
00:00:05.000 : en:Welcome to Cambodia
00:00:38.000 : en:Title Sequence
00:00:49.000 : en:The challenge
00:05:01.000 : en:Everyone picks their boats
00:11:24.000 : en:A rough start to the journey
00:18:18.000 : en:Making camp for the night
00:21:44.000 : en:Shopping for provisions
00:24:49.000 : en:Making their way across the lake
00:30:45.000 : en:Testing out what the boats can do
00:36:40.000 : en:Arriving in Phnom Penh
00:43:53.000 : en:Journey to the Mekong River
00:49:03.000 : en:Entering Vietnam
00:52:35.000 : en:The story of heroism in Chau Doc
00:54:28.000 : en:Navigating in the dark
00:59:53.000 : en:Getting lost
01:07:08.000 : en:A busy river route
01:14:26.000 : en:The Forest of the Assassins
01:19:57.000 : en:An epic adventure
01:21:37.000 : en:What could possibly go wrong?
01:29:01.000 : en:A treacherous journey to the finish line
01:30:54.000 : en:End Credits
Внимание! Раздача ведётся путём добавления новых серий; при каждом добавлении создаётся новый торрент. Чтобы начать докачку новой серии, пользователям необходимо сделать следующее:
(1) остановить скачивание,
(2) удалить старый торрент у себя из клиента (старые серии удалять не надо),
(3) скачать новый торрент и запустить его у себя в клиенте вместо старого, при этом указать клиенту путь в старую папку куда и должно происходить скачивание новых серий.
Ваш клиент при этом должен произвести хеширование (проверку) старой папки (если не производит сам - помогите ему сделать это), и будет докачивать только те серии которых у вас ещё нет. Старые серии при этом не удаляются, а продолжают раздаваться!
Eсли вы уже удалили старые серии, то предотвратить повторную закачку старых серий можно, отжав галочку в соответствующих местах при запуске нового торрента. По возможности, желательно не удалять старые серии как можно дольше чтобы релизёр не столько продолжал раздавать старые серии, а смог сконцентрироваться на новых.
pb.wtf



Скачать Гранд Тур через торрент https://i3.imageban.ru/out/2019/01/18/4ac98f3b20586e1ea38abb4b97794551.png Скачать, смотреть онлайн Гранд Тур бесплантно в хорошем качестве Описание: "Гранд Тур" — это новое автомобильное телешоу, созданное бывшими ведущими Top Gear — Джереми Кларксоном, Ричардом Хаммондом и ... 10 10 6
Торрент: Зарегистрирован [2020-12-21 03:50] · скачан: 23 раз
Статус: √ проверено
Размер: 48.29 GB
Как cкачать? Как скачать Гранд Тур через торрент | UTorrent



Последний раз редактировалось: bober100 (2020-12-21 03:50), всего редактировалось 1 раз

28-11-2019 20:33  

Отключить вcю реклaмy на сайте

16-12-2019 06:19 Гранд Тур Скачать торрент  

картинка с 3 сезона. Это точно 4 сезон , и для первой серии размер не большоват?))))pb.wtf



21-12-2020 09:42 Гранд Тур Скачать торрент  

не прошло и годаpb.wtf



    Дорогой пользователь! Огромная просьба, поблагодарите релизера, оцените раздачу и оставьте свои комментарий, если Вы скачали Гранд Тур через торрент бесплатно!
    Комментировать посты могут только пользователи прошедшие не сложную регистрацию
    Показать сообщения:    

    Гранд Тур через торрент
    Скачать бесплатно Гранд Тур
    Гранд Тур скачать торрент
    Гранд Тур смотреть онлайн
    Cкачать фильм Гранд Тур бесплатно
    Гранд Тур скачать торрент в хорошем качестве
    Гранд Тур смотреть онлайн бесплатно в хорошем качестве


    Вы не можете начинать темы
    Вы не можете отвечать на сообщения
    Вы не можете редактировать свои сообщения
    Вы не можете удалять свои сообщения
    Вы не можете голосовать в опросах
    Вы не можете прикреплять файлы к сообщениям
    Вы можете скачивать файлы