Всегда рабочее зеркало без VPN и Proxy просто перед .vidak.icu напиши любое слово или цифру, Пример http://t5wt.vidak.icu

MVO

MVO

1 сезон

1

1 сезон

iTunes

1 сезон

13

1 сезон

Deluxe

pack

Рекомендуем

Repack

30

ВАЖНО

RePack

MK11

RePack

jed

RePack

fifa19

RePack

RDR2

RePack

NEED FOR SPEED™ PAYBACK

Кинопоиск HD

6 сезон

 Острые козырьки 6 сезон

Все сериалы

все сериалы на PB.wtf

RePack

FAR CRY 5
  
Magnet ссылка

Гранд Тур / The Grand Tour / Сезон: 4 / Серии: 1-4 из 4 (Фил Чурчуорд, Кит Линч Робинсон, Гэвин Уайтхед) [2019, Авто-шоу, WEB-DL 1080p] 2xMVO [AlexFilm, NewStudio] pb.wtf

Гранд Тур через торрент pb.wtf

Раздают: 2 [ 0 KB/s ]
Размер: 25.22 GB | Добавлен: 7 мес. назад | Торрент скачан:43 раза
Смотреть онлайн Гранд Тур | Скачать    Ребята, помогите собрать деньги на оплату серверов!!!

14-12-2019 07:36 Гранд Тур Скачать торрент  

Гранд Тур | The Grand Tour Год выхода: 2019
Страна: Великобритания
Студия: Amazon Studios, W. Chump & sons
Жанр: Автопередача
Продолжительность: ~01:10:00 серия
Перевод:
Профессиональное многоголосое закадровое | AlexFilm
Профессиональное многоголосое закадровое | NewStudio*1-я серия
Субтитры: Русские (Full |Amazon|, английские (Forced, Full, SDH)

Режиссер: Фил Чурчуорд, Кит Линч Робинсон, Гэвин Уайтхед

В ролях: Джереми Кларксон, Ричард Хаммонд, Джеймс Мэй

Описание: "Гранд Тур" — это новое автомобильное телешоу, созданное бывшими ведущими Top Gear — Джереми Кларксоном, Ричардом Хаммондом и Джеймсом Мэйем. Зрителей ждут автомобильные обзоры, приключения по всему миру, встречи со знаменитостями и юмор, который является непременным атрибутом каждого выпуска.

rating


Качество видео: WEB-DL 1080p
Формат: MKV

Видео: AVC, 1920x1080 (16:9), 25 fps, ~9200 Kbps
Аудио №1: AC3, 48,0 kHz, 6 ch, 384 kbps | AlexFilm
Аудио №2: AC3, 48,0 kHz, 6 ch, 640 kbps | NewStudio *1-я серия
Аудио №3: AC3, 48,0 kHz, 6 ch, 640 kbps | Original
:

Перевод: Константин Кривоногов
Монтаж и сведение звука: Константин Федосеев
Роли озвучивали:

Екатерина Муравицкая
Андрей Стакионис
Константин Погодаев
Дмитрий Лунёв
Михаил Суслов
Кирилл Патрино


скриншот  скриншот  скриншот  скриншот  
Complete name : D:\The_Grand_Tour_(s04)_1080p\The.Grand.Tour.2019.S04E01.The.Grand.Tour.presents...Seamen.1080p.AMZN.WEB-DL.DD5.1.x264-NTb_EniaHD.mkv
Format : Matroska
Format version : Version 2
File size : 7.11 GiB
Duration : 1 h 31 min
Overall bit rate : 11.1 Mb/s
Encoded date : UTC 2019-12-19 16:59:14
Writing application : mkvmerge v4.9.1 ('Ich will') сборка от Jul 11 2011 23:53:15
Writing library : libebml v1.2.1 + libmatroska v1.1.1

Video
ID : 1
Format : AVC
Format/Info : Advanced Video Codec
Format profile : [email protected]
Format settings : CABAC / 4 Ref Frames
Format settings, CABAC : Yes
Format settings, Reference : 4 frames
Codec ID : V_MPEG4/ISO/AVC
Duration : 1 h 31 min
Bit rate mode : Constant
Bit rate : 9 222 kb/s
Nominal bit rate : 10 000 kb/s
Width : 1 920 pixels
Height : 1 080 pixels
Display aspect ratio : 16:9
Frame rate mode : Constant
Frame rate : 25.000 FPS
Color space : YUV
Chroma subsampling : 4:2:0
Bit depth : 8 bits
Scan type : Progressive
Bits/(Pixel*Frame) : 0.178
Stream size : 5.90 GiB (83%)
Title : Release by EniaHD
Default : Yes
Forced : No
Color range : Limited
Color primaries : BT.709
Transfer characteristics : BT.709
Matrix coefficients : BT.709

Audio #1
ID : 2
Format : AC-3
Format/Info : Audio Coding 3
Commercial name : Dolby Digital
Codec ID : A_AC3
Duration : 1 h 31 min
Bit rate mode : Constant
Bit rate : 384 kb/s
Channel(s) : 6 channels
Channel layout : L R C LFE Ls Rs
Sampling rate : 48.0 kHz
Frame rate : 31.250 FPS (1536 SPF)
Bit depth : 16 bits
Compression mode : Lossy
Stream size : 252 MiB (3%)
Title : AlexFilm
Language : Russian
Service kind : Complete Main
Default : Yes
Forced : No

Audio #2
ID : 3
Format : AC-3
Format/Info : Audio Coding 3
Commercial name : Dolby Digital
Codec ID : A_AC3
Duration : 1 h 31 min
Bit rate mode : Constant
Bit rate : 640 kb/s
Channel(s) : 6 channels
Channel layout : L R C LFE Ls Rs
Sampling rate : 48.0 kHz
Frame rate : 31.250 FPS (1536 SPF)
Bit depth : 16 bits
Compression mode : Lossy
Stream size : 419 MiB (6%)
Title : NewStudio
Language : Russian
Service kind : Complete Main
Default : No
Forced : No

Audio #3
ID : 4
Format : AC-3
Format/Info : Audio Coding 3
Commercial name : Dolby Digital
Codec ID : A_AC3
Duration : 1 h 31 min
Bit rate mode : Constant
Bit rate : 640 kb/s
Channel(s) : 6 channels
Channel layout : L R C LFE Ls Rs
Sampling rate : 48.0 kHz
Frame rate : 31.250 FPS (1536 SPF)
Bit depth : 16 bits
Compression mode : Lossy
Stream size : 419 MiB (6%)
Language : English
Service kind : Complete Main
Default : No
Forced : No

Text #1
ID : 5
Format : UTF-8
Codec ID : S_TEXT/UTF8
Codec ID/Info : UTF-8 Plain Text
Title : Full |Amazon|
Language : Russian
Default : No
Forced : No

Text #2
ID : 6
Format : UTF-8
Codec ID : S_TEXT/UTF8
Codec ID/Info : UTF-8 Plain Text
Title : Forced
Language : English
Default : No
Forced : No

Text #3
ID : 7
Format : UTF-8
Codec ID : S_TEXT/UTF8
Codec ID/Info : UTF-8 Plain Text
Title : Full
Language : English
Default : No
Forced : No

Text #4
ID : 8
Format : UTF-8
Codec ID : S_TEXT/UTF8
Codec ID/Info : UTF-8 Plain Text
Title : SDH
Language : English
Default : No
Forced : No

Menu
00:00:00.000 : en:Amazon Original
00:00:05.000 : en:Welcome to Cambodia
00:00:38.000 : en:Title Sequence
00:00:49.000 : en:The challenge
00:05:01.000 : en:Everyone picks their boats
00:11:24.000 : en:A rough start to the journey
00:18:18.000 : en:Making camp for the night
00:21:44.000 : en:Shopping for provisions
00:24:49.000 : en:Making their way across the lake
00:30:45.000 : en:Testing out what the boats can do
00:36:40.000 : en:Arriving in Phnom Penh
00:43:53.000 : en:Journey to the Mekong River
00:49:03.000 : en:Entering Vietnam
00:52:35.000 : en:The story of heroism in Chau Doc
00:54:28.000 : en:Navigating in the dark
00:59:53.000 : en:Getting lost
01:07:08.000 : en:A busy river route
01:14:26.000 : en:The Forest of the Assassins
01:19:57.000 : en:An epic adventure
01:21:37.000 : en:What could possibly go wrong?
01:29:01.000 : en:A treacherous journey to the finish line
01:30:54.000 : en:End Credits
Внимание! Раздача ведётся путём добавления новых серий; при каждом добавлении создаётся новый торрент. Чтобы начать докачку новой серии, пользователям необходимо сделать следующее:
(1) остановить скачивание,
(2) удалить старый торрент у себя из клиента (старые серии удалять не надо),
(3) скачать новый торрент и запустить его у себя в клиенте вместо старого, при этом указать клиенту путь в старую папку куда и должно происходить скачивание новых серий.
Ваш клиент при этом должен произвести хеширование (проверку) старой папки (если не производит сам - помогите ему сделать это), и будет докачивать только те серии которых у вас ещё нет. Старые серии при этом не удаляются, а продолжают раздаваться!
Eсли вы уже удалили старые серии, то предотвратить повторную закачку старых серий можно, отжав галочку в соответствующих местах при запуске нового торрента. По возможности, желательно не удалять старые серии как можно дольше чтобы релизёр не столько продолжал раздавать старые серии, а смог сконцентрироваться на новых.
pb.wtf



Скачать Гранд Тур через торрент https://a.radikal.ru/a06/1901/a1/ce805cf295ed.png Скачать, смотреть онлайн Гранд Тур бесплантно в хорошем качестве Описание: "Гранд Тур" — это новое автомобильное телешоу, созданное бывшими ведущими Top Gear — Джереми Кларксоном, Ричардом Хаммондом и ... 9.4 10 18
Info! Золотая раздача, скачанное не засчитывается.
Торрент: Зарегистрирован [2021-12-18 14:46] · скачан: 43 раз
Статус: √ проверено
Размер: 25.22 GB
Как cкачать? Как скачать Гранд Тур через торрент | UTorrent

% Раздел Тема Автор DL S | L
Автоспорт [ 12.69 GB ] Гранд Тур / The Grand Tour / Сезон: 4 / Серии: 1-4 из 4 [2019 Авто-шоу WEB-DL 720p] MVO [AlexFilm] bober100 Скачать
1 | 0
Автоспорт [ 48.29 GB ] Гранд Тур / The Grand Tour / Сезон: 4 / Серии: 1-2 из 14 [2019 Авто-шоу WEBRip 2160p] MVO [AlexFilm] bober100 Скачать
1 | 0
Автоспорт [ 4.38 GB ] Гранд Тур / The Grand Tour / Сезон: 4 / Серии: 1- из 14 [2019 Авто-шоу WEB-DL 720p] MVO [NewStudio] bober100 Скачать
1 | 0
Автоспорт [ 17.75 GB ] Гранд Тур / The Grand Tour / Сезон 4 / Серии 1-3 из 10 [2019-2020. Авто-шоу WEB-DL 1080p] [MVO] killermax2013 Скачать
1 | 0
Автоспорт [ 6.63 GB ] Гранд Тур / The Grand Tour / Сезон: 4 / Серии: 1-4 из 4 [2019 Авто-шоу WEB-DLRip] MVO [AlexFilm] bober100 Скачать
3 | 0


Последний раз редактировалось: bober100 (2021-12-18 14:46), всего редактировалось 6 раз(а)

28-11-2019 20:33  

Отключить вcю реклaмy на сайте

14-12-2019 22:01 Гранд Тур Скачать торрент  

Одна из лучших серий за всё время. Качать в максимальном качестве.pb.wtf



11-05-2020 17:37 Гранд Тур Скачать торрент  

Полностью согласен).pb.wtf



19-12-2020 18:06 Гранд Тур Скачать торрент  

Год 2020-й (а не 2019-й)pb.wtf



21-12-2020 18:18 Гранд Тур Скачать торрент  

Крутая серия! Рекомендасьён!pb.wtf



    Дорогой пользователь! Огромная просьба, поблагодарите релизера, оцените раздачу и оставьте свои комментарий, если Вы скачали Гранд Тур через торрент бесплатно!
    Комментировать посты могут только пользователи прошедшие не сложную регистрацию
    Показать сообщения:    

    Гранд Тур через торрент
    Скачать бесплатно Гранд Тур
    Гранд Тур скачать торрент
    Гранд Тур смотреть онлайн
    Cкачать фильм Гранд Тур бесплатно
    Гранд Тур скачать торрент в хорошем качестве
    Гранд Тур смотреть онлайн бесплатно в хорошем качестве


    Вы не можете начинать темы
    Вы не можете отвечать на сообщения
    Вы не можете редактировать свои сообщения
    Вы не можете удалять свои сообщения
    Вы не можете голосовать в опросах
    Вы не можете прикреплять файлы к сообщениям
    Вы можете скачивать файлы