Всегда рабочее зеркало без VPN и Proxy просто перед .vidak.icu напиши любое слово или цифру, Пример http://la0b.vidak.icu

MVO

2 сезон

2 сезон

1

1 сезон

iTunes

2 сезон

13

1 сезон

Распродажа

pack

Рекомендуем

Пиратка

30

ВАЖНО

RePack

MK11

RePack

jed

RePack

fifa19

RePack

RDR2

RePack

NEED FOR SPEED™ PAYBACK

Кинопоиск HD

6 сезон

 Острые козырьки 6 сезон

Все сериалы

все сериалы на PB.wtf

RePack

FAR CRY 5

Anonymous, нам критически не хватает 5601 руб. на оплату серверов и переферии за Апрель, помоги нам пожалуйста, вся надежда только на тебя. В благодарность мы отключим тебе всю рекламу на сайте!

×
  
Magnet ссылка

Монстры, созданные человеком / Monsters of Man (Марк Тойя) [2020, Фантастика, боевик, WEB-DLRip-AVC] [AVO] [А. Дольский] от Mediabit pb.wtf

Монстры, созданные человеком через торрент pb.wtf

Размер: 1.82 GB | Добавлен: 1 год 4 мес. назад | Торрент скачан:98 раз
Смотреть онлайн Монстры, созданные человеком | Скачать    Ребята, помогите собрать деньги на оплату серверов!!!

24-12-2020 16:38 Монстры, созданные человеком Скачать торрент  


Монстры, созданные человеком / Monsters of Man
Информация о фильме:
Название: Монстры, созданные человеком
Оригинальное название: Monsters of Man
Год выхода: 2020
Жанр: Фантастика, боевик
Режиссер: Марк Тойя

В ролях: Нил МакДонаф, Хосе Росете, Алексис Марьянович, Джессика Блэкмор, Дэвид Хэверти, Конрад Прэтт, Кейли Тран, Джорди Тулленерс, Дэвид Самартин, Тейлор Ли Эдвардс, Бретт Тьютор, Пол Хаапаниеми, Райан Хью, Ли Тай, Ма Райнет

Описание: Крупная корпорация, занимающаяся производством робототехники, заручившись поддержкой продажного агента ЦРУ, решает провести незаконную несанкционированную военную операцию, чтобы продемонстрировать их отличные боевые качества, для получения крупных контрактов. В качестве полигона для испытаний они выбирают скрытый лагерь наркоторговцев. Но хорошо продуманный план дает сбой...



Страна: Австралия
Студия: MRT Films Pty Ltd, Hanuman Films, 11:11 Entertainment
Продолжительность: 02:11:45
Перевод: Aвторский (многоголосый, закадровый) - А. Дольский



Информация о файле:
Кодек: AVC
Формат: MKV
Качество: WEB-DLRip-AVC
Видео: MPEG-4 AVC, 1024x426, 24.000 fps, 1533 kb/s
Аудио RU: AC3, 6 ch, 48 kHz, 448 kbps
Субтитры: Русские (Forced, Full), английские

General
Unique ID : 109886688933334601360062848530926546974 (0x52AB680E7583B90BA4AF1A8C88C8301E)
Complete name : D:uTorrentРипы_от_wolf1245_MediaBitMonsters.of.Man.2020.WEB-DLRip-AVC_wolf1245_MediaBit.mkv
Format : Matroska
Format version : Version 4
File size : 1.82 GiB
Duration : 2 h 11 min
Overall bit rate : 1 983 kb/s
Movie name : Monsters.of.Man.2020.WEB-DLRip-AVC_wolf1245_MediaBit
Encoded date : UTC 2020-12-23 02:32:57
Writing application : mkvmerge v51.0.0 ('I Wish') 64-bit
Writing library : libebml v1.4.0 + libmatroska v1.6.2
Video
ID : 1
Format : AVC
Format/Info : Advanced Video Codec
Format profile : High@L4.1
Format settings : CABAC / 12 Ref Frames
Format settings, CABAC : Yes
Format settings, Reference frames : 12 frames
Codec ID : V_MPEG4/ISO/AVC
Duration : 2 h 11 min
Bit rate : 1 533 kb/s
Width : 1 024 pixels
Height : 426 pixels
Display aspect ratio : 2.40:1
Frame rate mode : Constant
Frame rate : 24.000 FPS
Color space : YUV
Chroma subsampling : 4:2:0
Bit depth : 8 bits
Scan type : Progressive
Bits/(Pixel*Frame) : 0.146
Stream size : 1.41 GiB (77%)
Title : wolf1245_MediaBit
Writing library : x264 core 157 r2958 57baac4
Encoding settings : cabac=1 / ref=12 / deblock=1:-3:-2 / analyse=0x3:0x133 / me=umh / subme=11 / psy=1 / psy_rd=1.03:0.03 / mixed_ref=1 / me_range=48 / chroma_me=1 / trellis=2 / 8x8dct=1 / cqm=0 / deadzone=21,11 / fast_pskip=0 / chroma_qp_offset=-3 / threads=10 / lookahead_threads=2 / sliced_threads=0 / nr=0 / decimate=0 / interlaced=0 / bluray_compat=0 / constrained_intra=0 / bframes=12 / b_pyramid=2 / b_adapt=2 / b_bias=0 / direct=3 / weightb=1 / open_gop=0 / weightp=2 / keyint=240 / keyint_min=24 / scenecut=40 / intra_refresh=0 / rc_lookahead=100 / rc=2pass / mbtree=0 / bitrate=1533 / ratetol=1.0 / qcomp=0.60 / qpmin=0 / qpmax=69 / qpstep=4 / cplxblur=20.0 / qblur=0.5 / vbv_maxrate=50000 / vbv_bufsize=62500 / nal_hrd=none / filler=0 / ip_ratio=1.40 / pb_ratio=1.30 / aq=2:0.80
Language : English
Default : Yes
Forced : No
Color range : Limited
Color primaries : BT.709
Transfer characteristics : BT.709
Matrix coefficients : BT.709
Audio
ID : 2
Format : AC-3
Format/Info : Audio Coding 3
Commercial name : Dolby Digital
Codec ID : A_AC3
Duration : 2 h 11 min
Bit rate mode : Constant
Bit rate : 448 kb/s
Channel(s) : 6 channels
Channel layout : L R C LFE Ls Rs
Sampling rate : 48.0 kHz
Frame rate : 31.250 FPS (1536 SPF)
Compression mode : Lossy
Stream size : 422 MiB (23%)
Title : AVO | А.Дольский
Language : Russian
Service kind : Complete Main
Default : Yes
Forced : No
Text #1
ID : 3
Format : UTF-8
Codec ID : S_TEXT/UTF8
Codec ID/Info : UTF-8 Plain Text
Duration : 2 h 11 min
Bit rate : 1 b/s
Count of elements : 52
Stream size : 1.90 KiB (0%)
Title : Forced
Language : Russian
Default : No
Forced : No
Text #2
ID : 4
Format : UTF-8
Codec ID : S_TEXT/UTF8
Codec ID/Info : UTF-8 Plain Text
Duration : 2 h 11 min
Bit rate : 76 b/s
Count of elements : 1925
Stream size : 73.6 KiB (0%)
Title : Full
Language : Russian
Default : No
Forced : No
Text #3
ID : 5
Format : UTF-8
Codec ID : S_TEXT/UTF8
Codec ID/Info : UTF-8 Plain Text
Duration : 2 h 4 min
Bit rate : 43 b/s
Count of elements : 1602
Stream size : 39.8 KiB (0%)
Language : English
Default : No
Forced : No
Text #4
ID : 6
Format : UTF-8
Codec ID : S_TEXT/UTF8
Codec ID/Info : UTF-8 Plain Text
Duration : 2 h 11 min
Bit rate : 55 b/s
Count of elements : 2131
Stream size : 53.0 KiB (0%)
Title : SDH
Language : English
Default : No
Forced : No
Релиз от: & &
pb.wtf



Скачать Монстры, созданные человеком через торрент http://b.radikal.ru/b12/2012/f9/507faddad49f.jpg Скачать, смотреть онлайн Монстры, созданные человеком бесплантно в хорошем качестве Описание: Крупная корпорация, занимающаяся м робототехники, заручившись поддержкой продажного агента ЦРУ, решает провести ... 10 10 2
Торрент: Зарегистрирован [2020-12-24 16:38] · скачан: 98 раз
Статус: √ проверено
Размер: 1.82 GB
Как cкачать? Как скачать Монстры, созданные человеком через торрент | UTorrent



Последний раз редактировалось: Lithuania (2020-12-25 12:23), всего редактировалось 1 раз

28-11-2019 20:33  

Отключить всю рекламу на сайте

24-12-2020 19:01 Монстры, созданные человеком Скачать торрент  

Подробнее о фильме: pb.wtf



    Дорогой пользователь! Огромная просьба, поблагодарите релизера, оцените раздачу и оставьте свои комментарий, если Вы скачали Монстры, созданные человеком через торрент бесплатно!
    Комментировать посты могут только пользователи прошедшие не сложную регистрацию
    Показать сообщения:    

    Монстры, созданные человеком через торрент
    Скачать бесплатно Монстры, созданные человеком
    Монстры, созданные человеком скачать торрент
    Монстры, созданные человеком смотреть онлайн
    Cкачать фильм Монстры, созданные человеком бесплатно
    Монстры, созданные человеком скачать торрент в хорошем качестве
    Монстры, созданные человеком смотреть онлайн бесплатно в хорошем качестве


    Вы не можете начинать темы
    Вы не можете отвечать на сообщения
    Вы не можете редактировать свои сообщения
    Вы не можете удалять свои сообщения
    Вы не можете голосовать в опросах
    Вы не можете прикреплять файлы к сообщениям
    Вы можете скачивать файлы