Доктор Стрэндж

Лицензия

Добыча

Дубляж

Уэнсдэй

1 сезон

Тор

Дубляж

В эфире

Дубляж

Там, где раки поют

MVO

Властелин колец

1 сезон

Deluxe

pack

Рекомендуем

30

Пиратка

ВАЖНО

ВАЖНО

Ghostwire

Пиратка

jed

RePack

nioh2

RePack

RDR2

RePack

NEED FOR SPEED™ PAYBACK

RePack

скачать торрент

Кинопоиск HD

Острые козырьки 6 сезон

6 сезон

FAR CRY 6

RePack

скачать торрент

Лицензия

скачать торрент

MVO

1

1 сезон

скачать торрент

1 сезон

скачать торрент

Лицензия

  

Настя, соберись! / Сезон: 1 / Серии: 1-10 из 10 (Вера Смолина) [2021, Комедия, WEBRip-AVC, (Версия 18+)]

Настя, соберись! через торрент pb.wtf

Размер: 4.42 GB | Добавлен: 1 год 10 мес. назад | Торрент скачан:124 раза
Смотреть онлайн | Скачать   

03-01-2021 21:44 Настя, соберись! Скачать торрент  

Настя, соберись!
Год выпуска: 2021
Страна: Россия
Выпущено: КиноПоиск HD, Droog Drooga Films
Жанр: Комедия
Продолжительность: ~ 00:30:00 серия
Субтитры: отсутствуют
Версия 18+. Внимание! Присутствует ненормативная лексика.

Режиссер: Вера Смолина



В ролях: Любовь Аксёнова, Юлия Ауг, Светлана Камынина, Алина Алексеева (II), Рина Гришина, Юлия Гришаева, Ева Смирнова (II), Вера Строкова, Маргарита Аброськина, Арсений Сергеев

Описание: Знакомьтесь: Настя, 29 лет, дизайнер-архитектор, замужем. В ней уживаются пять совершенно разных внутренних «я». Это внутренний ребенок; ответственная за приступы всех генеральных уборок хозяюшка; одержимый контролем требовательный родитель; богиня удовольствий и самоуверенная, дерзкая карьеристка. У каждой из них — свои интересы и представления о счастье. Они хитрят, спорят и воюют между собой. Но когда Настя одновременно потеряет работу, мужа и лучшую подругу, пятёрку ждёт сложная задача. Им предстоит научиться договариваться друг с другом и идти на компромиссы — все ради того, чтобы Настя смогла с уверенностью сказать: «Я люблю себя всех!».

Качество: WEBRip-AVC
Формат: MKV

Видео: MPEG-4 AVC, ~ 1600 Кбит/с, 1024x576, 25 кадр/с
Аудио: 48.0 kHz, AC3 Dolby Digital, 2/0 (L,R) ch, ~ 192 kbps
скриншот  скриншот  скриншот  скриншот  скриншот  

General
Unique ID : 172256160653653405141400116036735777680 (0x8197546D2B91C48898F87B0E38C6BB90)
Complete name : F:\Настя, соберись.(2021).WEBRip.(AVC).Files-x\01.Nastya.soberis.(2021).WEBRip.(AVC).by.Серый1779.Files-x.mkv
Format : Matroska
Format version : Version 2
File size : 391 MiB
Duration : 30 min 29 s
Overall bit rate : 1 792 kb/s
Encoded date : UTC 2021-01-03 16:07:52
Writing application : mkvmerge v7.8.0 ('River Man') 32bit built on Apr 3 2015 12:11:22
Writing library : libebml v1.3.1 + libmatroska v1.4.2

Video
ID : 1
Format : AVC
Format/Info : Advanced Video Codec
Format profile : [email protected]
Format settings : CABAC / 9 Ref Frames
Format settings, CABAC : Yes
Format settings, RefFrames : 9 frames
Codec ID : V_MPEG4/ISO/AVC
Duration : 30 min 29 s
Bit rate : 1 600 kb/s
Width : 1 024 pixels
Height : 576 pixels
Display aspect ratio : 16:9
Frame rate mode : Constant
Frame rate : 25.000 FPS
Color space : YUV
Chroma subsampling : 4:2:0
Bit depth : 8 bits
Scan type : Progressive
Bits/(Pixel*Frame) : 0.109
Stream size : 341 MiB (87%)
Writing library : x264 core 146 r2538 121396c
Encoding settings : cabac=1 / ref=9 / deblock=1:-2:-1 / analyse=0x3:0x133 / me=umh / subme=9 / psy=1 / psy_rd=1.00:0.15 / mixed_ref=1 / me_range=32 / chroma_me=1 / trellis=2 / 8x8dct=1 / cqm=0 / deadzone=21,11 / fast_pskip=0 / chroma_qp_offset=-3 / threads=18 / lookahead_threads=3 / sliced_threads=0 / nr=0 / decimate=1 / interlaced=0 / bluray_compat=0 / constrained_intra=0 / bframes=9 / b_pyramid=2 / b_adapt=2 / b_bias=0 / direct=1 / weightb=1 / open_gop=0 / weightp=2 / keyint=250 / keyint_min=25 / scenecut=40 / intra_refresh=0 / rc=2pass / mbtree=0 / bitrate=1600 / ratetol=1.0 / qcomp=0.60 / qpmin=0 / qpmax=69 / qpstep=4 / cplxblur=20.0 / qblur=0.5 / ip_ratio=1.40 / pb_ratio=1.30 / aq=2:1.00
Default : Yes
Forced : No
Color range : Limited
Color primaries : BT.709
Transfer characteristics : BT.709
Matrix coefficients : BT.709

Audio
ID : 2
Format : AC-3
Format/Info : Audio Coding 3
Format settings, Endianness : Big
Codec ID : A_AC3
Duration : 30 min 29 s
Bit rate mode : Constant
Bit rate : 192 kb/s
Channel(s) : 2 channels
Channel positions : Front: L R
Sampling rate : 48.0 kHz
Frame rate : 31.250 FPS (1536 SPF)
Bit depth : 16 bits
Compression mode : Lossy
Stream size : 41.9 MiB (11%)
Service kind : Complete Main
Default : Yes
Forced : No

Внимание! Раздача ведётся путём добавления новых серий; при каждом добавлении создаётся новый торрент.
Чтобы начать докачку новой серии, пользователям необходимо сделать следующее:
1. Остановить скачивание;
2. Удалить старый торрент у себя из клиента (старые серии удалять не надо);
3. Скачать новый торрент и запустить его у себя в клиенте вместо старого, при этом указать клиенту путь в старую папку куда и должно происходить скачивание новых серий. Ваш клиент при этом должен произвести хеширование (проверку) старой папки и будет докачивать только те серии, которых у вас ещё нет. Старые серии при этом не удаляются, а продолжают раздаваться! Eсли вы уже удалили старые серии, то предотвратить повторную закачку старых серий можно, отжав галочку в соответствующих местах при запуске нового торрента.




Скачать Настя, соберись! через торрент https://a.radikal.ru/a38/2101/94/6dd2623fca46.png Скачать, смотреть онлайн Настя, соберись! бесплантно в хорошем качестве Описание: Знакомьтесь: Настя, 29 лет, дизайнер-архитектор, замужем. В ней уживаются пять совершенно разных внутренних «я». Это внутренний ... 10 10 12
Торрент: Зарегистрирован [2021-01-10 15:59] · скачан: 124 раз
Статус: √ проверено
Размер: 4.42 GB
Как cкачать? Как скачать Настя, соберись! через торрент | UTorrent

% Раздел Тема Автор DL S | L
Наши сериалы [ 8.2 GB ] Настя, соберись! / Сезон: 1 / Серии: 1-10 из 10 | | 720p, (Версия 18+ bober100 Скачать
1 | 0
Наши сериалы [ 29.33 GB ] Настя, соберись! / Сезон: 1 / Серии: 1-10 из 10 | | 2160p, (Версия 18+ bober100 Скачать
1 | 0
Наши сериалы [ 5.17 GB ] Настя, соберись! / Сезон: 1 / Серии: 1-10 из 10 | | WEBRip, (Версия 18+ bober100 Скачать
1 | 0
Наши сериалы [ 12.95 GB ] Настя, соберись! / Сезон: 1 / Серии: 1-10 из 10 | | 1080p, (Версия 18+ bober100 Скачать
1 | 0

28-11-2019 20:33  


Отключить вcю реклaмy на сайте, в т.ч. и в плеере онлайн просмотра!

    Дорогой пользователь! Огромная просьба, поблагодарите релизера, оцените раздачу и оставьте свои комментарий, если Вы скачали Настя, соберись! через торрент бесплатно!!
    Комментировать посты могут только пользователи прошедшие не сложную регистрацию
    Показать сообщения:    


    Настя, соберись! через торрент
    Скачать бесплатно Настя, соберись!
    Настя, соберись! скачать торрент
    Настя, соберись! смотреть онлайн
    Cкачать фильм Настя, соберись! бесплатно
    Настя, соберись! скачать торрент в хорошем качестве
    Настя, соберись! смотреть онлайн бесплатно в хорошем качестве
    Вы не можете начинать темы
    Вы не можете отвечать на сообщения
    Вы не можете редактировать свои сообщения
    Вы не можете удалять свои сообщения
    Вы не можете голосовать в опросах
    Вы не можете прикреплять файлы к сообщениям
    Вы можете скачивать файлы
    Настя, соберись! / Сезон: 1 / Серии: 1-10 из 10 [2021, Комедия, WEBRip-AVC, ] смотреть онлайн, скачать торрент picoco.icu