Доктор Стрэндж

Лицензия

Добыча

Дубляж

Дом дракона

1 сезон

Тор

Дубляж

В эфире

Дубляж

Там, где раки поют

MVO

Властелин колец

1 сезон

Ultimate

pack

Рекомендуем

30

Пиратка

ВАЖНО

ВАЖНО

Ghostwire

Пиратка

jed

RePack

nioh2

RePack

RDR2

RePack

NEED FOR SPEED™ PAYBACK

RePack

скачать торрент

Кинопоиск HD

Острые козырьки 6 сезон

6 сезон

FAR CRY 6

RePack

скачать торрент

Лицензия

скачать торрент

MVO

1

1 сезон

скачать торрент

1 сезон

скачать торрент

Лицензия

  

Петька в космосе (Георгий Юнгвальд-Хилькевич) [1972 г., детский, семейный, SATRip-AVC]

Петька в космосе через торрент pb.wtf

Раздают: 1 [ 0 KB/s ]
Размер: 1.44 GB | Добавлен: 1 год 10 мес. назад | Торрент скачан:5 раз
Смотреть онлайн | Скачать   

24-01-2021 19:12 Петька в космосе Скачать торрент  

Петька в космосе

Год выпуска: 1972
Страна: СССР | Одесская киностудия
Жанр: детский, семейный
Продолжительность: 01:03:24
Перевод: не требуется

Режиссер: Георгий Юнгвальд-Хилькевич

В ролях: Андрей Филимонов, Борис Зайденберг, Владимир Балон, Оля Ваганова, Сережа Васильев, Лена Рябухина, Валя Тарасов, Миша Хукаленко, Татьяна Чернова, А. Остапенко

Описание: Школьник Петя, любитель помастерить и пофантазировать, однажды соорудил космический лифт. Над ним, конечно, все посмеялись, но Петя не обиделся, а принялся за следующее изобретение — и вскоре сконструировал необычную кухню. Кухня всех привела в полный восторг, и учитель предложил послать Петю на выставку технического творчества.

rating

Файл
Формат: MKV
Кодек: x264
Качество: SATRip-AVC (DVB)
Видео: MPEG-4 AVC, [email protected], 25.000 fps, 3052 kbps, 0.300 bit/pixel
Аудио: Русский, AC3, 2 chnls, 192 kbps
x264 [info]: frame I:549 Avg QP:16.39 size: 56074
x264 [info]: frame P:24674 Avg QP:18.50 size: 29978
x264 [info]: frame B:69890 Avg QP:20.44 size: 9741
x264 [info]: consecutive B-frames: 3.1% 5.6% 13.6% 30.0% 21.2% 23.7% 2.1% 0.5% 0.1% 0.1% 0.0%
Format : Matroska
Format version : Version 4
File size : 1.44 GiB
Duration : 1 h 3 min
Overall bit rate : 3 247 kb/s
Movie name : Петька в космосе (1972) - Rip by -{am}-
Encoded date : UTC 2021-01-18 18:13:02
Writing application : mkvmerge v7.2.0 ('On Every Street') 32bit built on Sep 13 2014 15:42:11
Writing library : libebml v1.3.0 + libmatroska v1.4.1
Attachments : poster1.png

Video
ID : 1
Format : AVC
Format/Info : Advanced Video Codec
Format profile : [email protected]
Format settings : CABAC / 16 Ref Frames
Format settings, CABAC : Yes
Format settings, Reference : 16 frames
Codec ID : V_MPEG4/ISO/AVC
Duration : 1 h 3 min
Bit rate : 3 052 kb/s
Width : 712 pixels
Height : 572 pixels
Display aspect ratio : 4:3
Original display aspect rat : 4:3
Frame rate mode : Constant
Frame rate : 25.000 FPS
Color space : YUV
Chroma subsampling : 4:2:0
Bit depth : 8 bits
Scan type : Progressive
Bits/(Pixel*Frame) : 0.300
Stream size : 1.35 GiB (94%)
Title : Petka.v.kosmose.1972.{am}.759.Rus
Writing library : x264 core 161 r3027+53 2464769 t_mod_New [(8 & 10)[email protected] X86_64]
Encoding settings : cabac=1 / ref=16 / deblock=1:-3:-1 / analyse=0x3:0x113 / me=umh / subme=11 / psy=1 / fade_compensate=0.00 / psy_rd=1.00:0.20 / mixed_ref=1 / me_range=48 / chroma_me=1 / trellis=2 / 8x8dct=1 / cqm=2 / deadzone=21,11 / fast_pskip=0 / chroma_qp_offset=-3 / threads=18 / lookahead_threads=4 / sliced_threads=0 / nr=0 / decimate=0 / interlaced=0 / bluray_compat=0 / constrained_intra=0 / fgo=0 / bframes=10 / b_pyramid=2 / b_adapt=2 / b_bias=0 / direct=3 / weightb=1 / open_gop=0 / weightp=2 / keyint=250 / keyint_min=25 / scenecut=40 / intra_refresh=0 / rc_lookahead=40 / rc=crf / mbtree=0 / crf=18.0000 / qcomp=0.60 / qpmin=0:0:0 / qpmax=30:30:30 / qpstep=4 / vbv_maxrate=50000 / vbv_bufsize=62500 / crf_max=0.0 / nal_hrd=none / filler=0 / ip_ratio=1.40 / pb_ratio=1.30 / aq=3:1.00 / aq-sensitivity=10.00 / aq-factor=1.00:1.00:1.00 / aq2=0 / aq3=0
Language : Russian
Default : Yes
Forced : No
Color range : Limited
Color primaries : BT.601 PAL
Transfer characteristics : BT.470 System B/G
Matrix coefficients : BT.470 System B/G

Audio
ID : 2
Format : AC-3
Format/Info : Audio Coding 3
Commercial name : Dolby Digital
Codec ID : A_AC3
Duration : 1 h 3 min
Bit rate mode : Constant
Bit rate : 192 kb/s
Channel(s) : 2 channels
Channel layout : L R
Sampling rate : 48.0 kHz
Frame rate : 31.250 FPS (1536 SPF)
Compression mode : Lossy
Stream size : 87.1 MiB (6%)
Title : Original
Language : Russian
Service kind : Complete Main
Default : Yes
Forced : No
скриншот  скриншот  скриншот  скриншот  

скриншот  скриншот  скриншот  скриншот  

скриншот  скриншот  скриншот  скриншот  



Скачать Петька в космосе через торрент https://img11.lostpic.net/2021/01/24/0aae577c49a09428870d4db11eb5dea5.th.png Скачать, смотреть онлайн Петька в космосе бесплантно в хорошем качестве Описание: Школьник Петя, любитель помастерить и пофантазировать, однажды соорудил космический лифт. Над ним, конечно, все посмеялись, но ... 5 10 1
Info! Золотая раздача, скачанное не засчитывается.
Торрент: Зарегистрирован [2021-01-24 19:12] · скачан: 5 раз
Статус: √ проверено
Размер: 1.44 GB
Как cкачать? Как скачать Петька в космосе через торрент | UTorrent

28-11-2019 20:33  


Отключить вcю реклaмy на сайте, в т.ч. и в плеере онлайн просмотра!

    Дорогой пользователь! Огромная просьба, поблагодарите релизера, оцените раздачу и оставьте свои комментарий, если Вы скачали Петька в космосе через торрент бесплатно!!
    Комментировать посты могут только пользователи прошедшие не сложную регистрацию
    Показать сообщения:    


    Петька в космосе через торрент
    Скачать бесплатно Петька в космосе
    Петька в космосе скачать торрент
    Петька в космосе смотреть онлайн
    Cкачать фильм Петька в космосе бесплатно
    Петька в космосе скачать торрент в хорошем качестве
    Петька в космосе смотреть онлайн бесплатно в хорошем качестве
    Вы не можете начинать темы
    Вы не можете отвечать на сообщения
    Вы не можете редактировать свои сообщения
    Вы не можете удалять свои сообщения
    Вы не можете голосовать в опросах
    Вы не можете прикреплять файлы к сообщениям
    Вы можете скачивать файлы
    Петька в космосе [1972 г., детский, семейный, SATRip-AVC] смотреть онлайн, скачать торрент picoco.icu