Всегда рабочее зеркало без VPN и Proxy просто перед .vidak.icu напиши любое слово или цифру, Пример http://rcez.vidak.icu

MVO

MVO

1 сезон

1

1 сезон

iTunes

1 сезон

13

1 сезон

Deluxe

pack

Рекомендуем

Repack

30

ВАЖНО

RePack

MK11

RePack

jed

RePack

fifa19

RePack

RDR2

RePack

NEED FOR SPEED™ PAYBACK

Кинопоиск HD

6 сезон

 Острые козырьки 6 сезон

Все сериалы

все сериалы на PB.wtf

RePack

FAR CRY 5
  
Magnet ссылка

Автоспорт. NASCAR Cup Series 2020. Этап 29. Bass Pro Shops NRA Night Race (Bristol). Гонка [19.09.2020] [Владимир Башмаков и Алексей Попов, 2020 г., Автоспорт, HDTV (1080i) Профессиональный (двухголосый)] pb.wtf

Автоспорт. NASCAR Cup Series 2020. Этап 29. Bass Pro Shops NRA Night Race через торрент pb.wtf

Размер: 8.92 GB | Добавлен: 1 год 6 мес. назад | Торрент скачан:1 раз
Смотреть онлайн Автоспорт. NASCAR Cup Series 2020. Этап 29. Bass Pro Shops NRA Night Race | Скачать    Ребята, помогите собрать деньги на оплату серверов!!!

02-02-2021 15:55 Автоспорт. NASCAR Cup Series 2020. Этап 29. Bass Pro Shops NRA Night Race Скачать торрент  

Автоспорт. NASCAR Cup Series 2020. Этап 29. Bass Pro Shops NRA Night Race (Bristol). Гонка 19.09.2020
[font=Georgia]Пилоты NASCAR


Год выпуска: 2020
Страна: США
Вид спорта: Автоспорт
Продолжительность: 03:00:43
Комментарий:Владимир Башмаков и Алексей Попов
Описание: 29 этап NASCAR Cup Series 2020 на трассе Bristol Motor Speedway.
Качество: HDTV (1080i)
Формат: MKV
Видео кодек: AVC
Аудио кодек: MP2
Видео: MPEG-4 AVC, (1920x1080),7068 Кбит/с, 25.000 кадра/сек
Аудио#1: MP2, 2 ch, 192 kbps (Rus) 48.0 KHz Оригинал
скриншот   скриншот   скриншот  
Название: NASCAR.Cup.Series.2020.R29.Bass.Pro.Shops.NRA.Night.Race.Матч!Арена.1080I.Rus
:
Тип потока: Видео
Длительность: 03:00:43
Кодек: AVC
Кодек/описание: Advanced Video Codec
Кодек/профиль: [email protected]
Кодек/ID: V_MPEG4/ISO/AVC
Кодек/CABAC: Yes
Кодек/ReFrames: 4 frames
Размеры изображения: 1920 x 1080 (16:9)
Частота кадров: 49.949 FPS
Частота кадров/тип: Variable
Размер потока: 8.67 GiB (97%)
Битрейт: 6 867 kb/s
Стандарт: Component
Цветовое пространство: YUV
Тип развёртки: Interlaced
Колориметрия: 4:2:0
Глубина: 8 bits
:
Тип потока: Звук #1
Язык: Russian
Длительность: 03:00:43.448
Кодек: MPEG Audio
Кодек/профиль: Layer 2
Кодек/ID: A_MPEG/L2
Частота дискретизации: 48.0 kHz
Каналов: 2 channels
Битрейт: 192 kb/s
Битрейт/тип: Constant
Размер потока: 248 MiB (3%)
Метод сжатия: Lossy
pb.wtf



Скачать Автоспорт. NASCAR Cup Series 2020. Этап 29. Bass Pro Shops NRA Night Race через торрент https://pic1.kartinco.top/new/img/2021-02/02/1gx9jzs6ykehx8riwvdm7mwuo.png Скачать, смотреть онлайн Автоспорт. NASCAR Cup Series 2020. Этап 29. Bass Pro Shops NRA Night Race бесплантно в хорошем качестве Описание: 29 этап NASCAR Cup Series 2020 на трассе Bristol Motor ... 10 10 1
Торрент: Зарегистрирован [2021-02-02 15:55] · скачан: 1 раз
Статус: √ проверено
Размер: 8.92 GB
Как cкачать? Как скачать Автоспорт. NASCAR Cup Series 2020. Этап 29. Bass Pro Shops NRA Night Race через торрент | UTorrent

28-11-2019 20:33  

Отключить вcю реклaмy на сайте

    Дорогой пользователь! Огромная просьба, поблагодарите релизера, оцените раздачу и оставьте свои комментарий, если Вы скачали Автоспорт. NASCAR Cup Series 2020. Этап 29. Bass Pro Shops NRA Night Race через торрент бесплатно!
    Комментировать посты могут только пользователи прошедшие не сложную регистрацию
    Показать сообщения:    

    Автоспорт. NASCAR Cup Series 2020. Этап 29. Bass Pro Shops NRA Night Race через торрент
    Скачать бесплатно Автоспорт. NASCAR Cup Series 2020. Этап 29. Bass Pro Shops NRA Night Race
    Автоспорт. NASCAR Cup Series 2020. Этап 29. Bass Pro Shops NRA Night Race скачать торрент
    Автоспорт. NASCAR Cup Series 2020. Этап 29. Bass Pro Shops NRA Night Race смотреть онлайн
    Cкачать фильм Автоспорт. NASCAR Cup Series 2020. Этап 29. Bass Pro Shops NRA Night Race бесплатно
    Автоспорт. NASCAR Cup Series 2020. Этап 29. Bass Pro Shops NRA Night Race скачать торрент в хорошем качестве
    Автоспорт. NASCAR Cup Series 2020. Этап 29. Bass Pro Shops NRA Night Race смотреть онлайн бесплатно в хорошем качестве


    Вы не можете начинать темы
    Вы не можете отвечать на сообщения
    Вы не можете редактировать свои сообщения
    Вы не можете удалять свои сообщения
    Вы не можете голосовать в опросах
    Вы не можете прикреплять файлы к сообщениям
    Вы можете скачивать файлы