Всегда рабочее зеркало без VPN и Proxy просто перед .vidak.icu напиши любое слово или цифру, Пример http://yj6d.vidak.icu

Лицензия

MVO

1 сезон

1

1 сезон

iTunes

1 сезон

13

1 сезон

Deluxe

pack

Рекомендуем

Repack

30

ВАЖНО

RePack

MK11

RePack

jed

RePack

fifa19

RePack

RDR2

RePack

NEED FOR SPEED™ PAYBACK

Кинопоиск HD

6 сезон

 Острые козырьки 6 сезон

Все сериалы

все сериалы на PB.wtf

RePack

FAR CRY 5
  
Magnet ссылка

Специалист / Python. Уровень 2. Объектно - ориентированное программирование [2011] PCRec [2011 г., Программирование] pb.wtf

Специалист через торрент pb.wtf

Размер: 1.35 GB | Добавлен: 10 лет назад | Торрент скачан:268 раз
Смотреть онлайн Специалист | Скачать    Ребята, помогите собрать деньги на оплату серверов!!!

09-05-2012 21:56 Специалист Скачать торрент  

Python. Уровень 2. Объектно - ориентированное программирование

Автор: Специалист
Год выпуска: 2011
Страна: Россия
Жанр: Программирование
Продолжительность: 30:00:00
Качество видео: PCRec
Формат: WMV
Видео кодек: G2M3
Аудио кодек: Windows Media
Видео: 1280х1024 px, 86 kbps, 29,97 fps
Аудио: 48 kbps, mono, 44100 Hz

Описание: Цель курса — получить базовые навыки объектно-ориентированного программирования, познакомиться с базовыми элементами языка Python.
Курс предназначен для начинающих программистов, владеющих навыками программирования в объеме школьной программы по информатике, программистов, владеющих другим языком программирования и желающих освоить язык Python, системных администраторов, IT-специалистов, имеющих необходимость в освоении данного конкретного продукта, или желающих систематизировать имеющиеся знания и навыки.
Модуль 1. Первый принцип объектно-ориентированного программирования. Понятие класса
Инкапсуляция
Списки и словари с объектной точки зрения.
Изменяемые и неизменяемые значения
Класс. Основные составляющие класса.
Данные объекта.
Методы объекта
Специальные методы класса.
Конструктор и деструктор.
Модуль 2. Второй принцип объектно-ориентированного программирования
Наследование.
Базовый и производный класс.
Построение производного класса.
Модуль 3. Пользовательские исключения
Создание собственных исключений
Генерация исключений
Модуль 4. Свойства
Понятие свойства.
Создание свойства.
Модуль 5. Итераторы и функторы
* Генератор-функция
Объект-итератор
Объект-функтор
Модуль 6. Объект-менеджер контекста
Команда with
Специальные методы управления контентом.
Применение объекта-менеджера контента.
Модуль 7. Третий принцип объектно-ориентированного программирования
Полиморфизм
Подмена методов в производном классе.
Доступ к методам базового класса, которые были подменены.
Модуль 8. Финансовая арифметика
Модуль 9. Специальные методы для перегрузки операций
Модуль 10. Обработка XML-документов
Понятие о формате XML.
Разбор XML-документа (метод DOM)
Создание XML-документа.
Основные принципы разбора XML-документа методом SAX.
Модуль 11. Стандартная библиотека HTTPLIB
Общее
Полное имя : D:\Проги\Видеоуроки\Уроки Python\Python. Уровень 2. Объектно - ориентированное программирование\2011-01-31_18.45_PITON2_31_01_11_02_RAD_v.wmv
Формат : Windows Media
Размер файла : 93,3 Мбайт
Продолжительность : 2 ч. 28 м.
Режим общего битрейта : Переменный
Общий поток : 87,6 Кбит/сек
Максимальный общий битрейт : 219 Кбит/сек
Дата кодирования : UTC 2011-01-31 15:45:06.640

Видео
Идентификатор : 3
Формат : GoToMeeting3
Идентификатор кодека : G2M3
Идентификатор кодека/Информация : Citrix Systems, Inc.
Продолжительность : 2 ч. 28 м.
Вид битрейта : Переменный
Битрейт : 38,0 Кбит/сек
Ширина : 1280 пикселей
Высота : 1024 пикселя
Соотношение сторон : 5:4
Частота кадров : 29,970 кадров/сек
Битовая глубина : 8 бит
Бит/(Пиксели*Кадры) : 0.001
Размер потока : 40,5 Мбайт (43%)
Язык : Russian (RU)

Аудио
Идентификатор : 1
Формат : WMA
Версия формата : Version 2
Идентификатор кодека : 161
Идентификатор кодека/Информация : Windows Media Audio
Описание кодека : Windows Media Audio 9 - 48 kbps, 44 kHz, mono 1-pass CBR
Продолжительность : 2 ч. 28 м.
Вид битрейта : Постоянный
Битрейт : 48,0 Кбит/сек
Каналы : 1 канал
Частота : 44,1 КГц
Битовая глубина : 16 бит
Размер потока : 51,2 Мбайт (55%)
Язык : Russian

Общее
Полное имя : D:\Проги\Видеоуроки\Уроки Python\Python. Уровень 2. Объектно - ориентированное программирование\2011-02-01_18.40_PITON2_31_01_11_02_RAD_v.wmv
Формат : Windows Media
Размер файла : 121 Мбайт
Продолжительность : 2 ч. 47 м.
Режим общего битрейта : Переменный
Общий поток : 101 Кбит/сек
Максимальный общий битрейт : 232 Кбит/сек
Дата кодирования : UTC 2011-02-01 15:40:34.656

Видео
Идентификатор : 3
Формат : GoToMeeting3
Идентификатор кодека : G2M3
Идентификатор кодека/Информация : Citrix Systems, Inc.
Вид битрейта : Переменный
Битрейт : 51,0 Кбит/сек
Ширина : 1280 пикселей
Высота : 1024 пикселя
Соотношение сторон : 5:4
Режим частоты кадров : Переменный
Номинальная частота кадров : 29,970 кадров/сек
Битовая глубина : 8 бит
Язык : Russian (RU)

Аудио
Идентификатор : 1
Формат : WMA
Версия формата : Version 2
Идентификатор кодека : 161
Идентификатор кодека/Информация : Windows Media Audio
Описание кодека : Windows Media Audio 9 - 48 kbps, 44 kHz, mono 1-pass CBR
Продолжительность : 2 ч. 47 м.
Вид битрейта : Постоянный
Битрейт : 48,0 Кбит/сек
Каналы : 1 канал
Частота : 44,1 КГц
Битовая глубина : 16 бит
Размер потока : 57,5 Мбайт (48%)
Язык : Russian

Общее
Полное имя : D:\Проги\Видеоуроки\Уроки Python\Python. Уровень 2. Объектно - ориентированное программирование\2011-02-02_18.38_PITON2_31_01_11_02_RAD_v.wmv
Формат : Windows Media
Размер файла : 148 Мбайт
Продолжительность : 2 ч. 33 м.
Режим общего битрейта : Переменный
Общий поток : 134 Кбит/сек
Максимальный общий битрейт : 265 Кбит/сек
Дата кодирования : UTC 2011-02-02 15:38:48.562

Видео
Идентификатор : 3
Формат : GoToMeeting3
Идентификатор кодека : G2M3
Идентификатор кодека/Информация : Citrix Systems, Inc.
Вид битрейта : Переменный
Битрейт : 84,3 Кбит/сек
Ширина : 1280 пикселей
Высота : 1024 пикселя
Соотношение сторон : 5:4
Режим частоты кадров : Переменный
Номинальная частота кадров : 29,970 кадров/сек
Битовая глубина : 8 бит
Язык : Russian (RU)

Аудио
Идентификатор : 1
Формат : WMA
Версия формата : Version 2
Идентификатор кодека : 161
Идентификатор кодека/Информация : Windows Media Audio
Описание кодека : Windows Media Audio 9 - 48 kbps, 44 kHz, mono 1-pass CBR
Продолжительность : 2 ч. 33 м.
Вид битрейта : Постоянный
Битрейт : 48,0 Кбит/сек
Каналы : 1 канал
Частота : 44,1 КГц
Битовая глубина : 16 бит
Размер потока : 52,8 Мбайт (36%)
Язык : Russian

Общее
Полное имя : D:\Проги\Видеоуроки\Уроки Python\Python. Уровень 2. Объектно - ориентированное программирование\2011-02-03_18.45_PITON2_31_01_11_02_RAD_v.wmv
Формат : Windows Media
Размер файла : 187 Мбайт
Продолжительность : 3 ч. 5 м.
Режим общего битрейта : Переменный
Общий поток : 141 Кбит/сек
Максимальный общий битрейт : 272 Кбит/сек
Дата кодирования : UTC 2011-02-03 15:45:11.437

Видео
Идентификатор : 3
Формат : GoToMeeting3
Идентификатор кодека : G2M3
Идентификатор кодека/Информация : Citrix Systems, Inc.
Вид битрейта : Переменный
Битрейт : 91,3 Кбит/сек
Ширина : 1280 пикселей
Высота : 1024 пикселя
Соотношение сторон : 5:4
Режим частоты кадров : Переменный
Номинальная частота кадров : 29,970 кадров/сек
Битовая глубина : 8 бит
Язык : Russian (RU)

Аудио
Идентификатор : 1
Формат : WMA
Версия формата : Version 2
Идентификатор кодека : 161
Идентификатор кодека/Информация : Windows Media Audio
Описание кодека : Windows Media Audio 9 - 48 kbps, 44 kHz, mono 1-pass CBR
Продолжительность : 3 ч. 5 м.
Вид битрейта : Постоянный
Битрейт : 48,0 Кбит/сек
Каналы : 1 канал
Частота : 44,1 КГц
Битовая глубина : 16 бит
Размер потока : 63,8 Мбайт (34%)
Язык : Russian

Общее
Полное имя : D:\Проги\Видеоуроки\Уроки Python\Python. Уровень 2. Объектно - ориентированное программирование\2011-02-04_18.49_PITON2_31_01_11_02_RAD_v.wmv
Формат : Windows Media
Размер файла : 128 Мбайт
Продолжительность : 2 ч. 24 м.
Режим общего битрейта : Переменный
Общий поток : 124 Кбит/сек
Максимальный общий битрейт : 256 Кбит/сек
Дата кодирования : UTC 2011-02-04 15:49:29.640

Видео
Идентификатор : 3
Формат : GoToMeeting3
Идентификатор кодека : G2M3
Идентификатор кодека/Информация : Citrix Systems, Inc.
Вид битрейта : Переменный
Битрейт : 74,7 Кбит/сек
Ширина : 1280 пикселей
Высота : 1024 пикселя
Соотношение сторон : 5:4
Режим частоты кадров : Переменный
Номинальная частота кадров : 29,970 кадров/сек
Битовая глубина : 8 бит
Язык : Russian (RU)

Аудио
Идентификатор : 1
Формат : WMA
Версия формата : Version 2
Идентификатор кодека : 161
Идентификатор кодека/Информация : Windows Media Audio
Описание кодека : Windows Media Audio 9 - 48 kbps, 44 kHz, mono 1-pass CBR
Продолжительность : 2 ч. 24 м.
Вид битрейта : Постоянный
Битрейт : 48,0 Кбит/сек
Каналы : 1 канал
Частота : 44,1 КГц
Битовая глубина : 16 бит
Размер потока : 49,5 Мбайт (39%)
Язык : Russian

Общее
Полное имя : D:\Проги\Видеоуроки\Уроки Python\Python. Уровень 2. Объектно - ориентированное программирование\2011-02-07_18.42_PITON2_31_01_11_02_RAD_v.wmv
Формат : Windows Media
Размер файла : 152 Мбайт
Продолжительность : 2 ч. 32 м.
Режим общего битрейта : Переменный
Общий поток : 139 Кбит/сек
Максимальный общий битрейт : 270 Кбит/сек
Дата кодирования : UTC 2011-02-07 15:42:09.915

Видео
Идентификатор : 3
Формат : GoToMeeting3
Идентификатор кодека : G2M3
Идентификатор кодека/Информация : Citrix Systems, Inc.
Продолжительность : 2 ч. 32 м.
Вид битрейта : Переменный
Битрейт : 89,2 Кбит/сек
Ширина : 1280 пикселей
Высота : 1024 пикселя
Соотношение сторон : 5:4
Частота кадров : 29,970 кадров/сек
Битовая глубина : 8 бит
Бит/(Пиксели*Кадры) : 0.002
Размер потока : 97,2 Мбайт (64%)
Язык : Russian (RU)

Аудио
Идентификатор : 1
Формат : WMA
Версия формата : Version 2
Идентификатор кодека : 161
Идентификатор кодека/Информация : Windows Media Audio
Описание кодека : Windows Media Audio 9 - 48 kbps, 44 kHz, mono 1-pass CBR
Продолжительность : 2 ч. 32 м.
Вид битрейта : Постоянный
Битрейт : 48,0 Кбит/сек
Каналы : 1 канал
Частота : 44,1 КГц
Битовая глубина : 16 бит
Размер потока : 52,3 Мбайт (34%)
Язык : Russian

Общее
Полное имя : D:\Проги\Видеоуроки\Уроки Python\Python. Уровень 2. Объектно - ориентированное программирование\2011-02-08_18.50_PITON2_31_01_11_02_RAD_v.wmv
Формат : Windows Media
Размер файла : 145 Мбайт
Продолжительность : 2 ч. 37 м.
Режим общего битрейта : Переменный
Общий поток : 129 Кбит/сек
Максимальный общий битрейт : 260 Кбит/сек
Дата кодирования : UTC 2011-02-08 15:50:38.109

Видео
Идентификатор : 3
Формат : GoToMeeting3
Идентификатор кодека : G2M3
Идентификатор кодека/Информация : Citrix Systems, Inc.
Вид битрейта : Переменный
Битрейт : 78,7 Кбит/сек
Ширина : 1280 пикселей
Высота : 1024 пикселя
Соотношение сторон : 5:4
Режим частоты кадров : Переменный
Номинальная частота кадров : 29,970 кадров/сек
Битовая глубина : 8 бит
Язык : Russian (RU)

Аудио
Идентификатор : 1
Формат : WMA
Версия формата : Version 2
Идентификатор кодека : 161
Идентификатор кодека/Информация : Windows Media Audio
Описание кодека : Windows Media Audio 9 - 48 kbps, 44 kHz, mono 1-pass CBR
Продолжительность : 2 ч. 37 м.
Вид битрейта : Постоянный
Битрейт : 48,0 Кбит/сек
Каналы : 1 канал
Частота : 44,1 КГц
Битовая глубина : 16 бит
Размер потока : 54,2 Мбайт (37%)
Язык : Russian

Общее
Полное имя : D:\Проги\Видеоуроки\Уроки Python\Python. Уровень 2. Объектно - ориентированное программирование\2011-02-09_18.35_PITON2_31_01_11_02_RAD_v.wmv
Формат : Windows Media
Размер файла : 160 Мбайт
Продолжительность : 2 ч. 53 м.
Режим общего битрейта : Переменный
Общий поток : 129 Кбит/сек
Максимальный общий битрейт : 260 Кбит/сек
Дата кодирования : UTC 2011-02-09 15:35:14.609

Видео
Идентификатор : 3
Формат : GoToMeeting3
Идентификатор кодека : G2M3
Идентификатор кодека/Информация : Citrix Systems, Inc.
Вид битрейта : Переменный
Битрейт : 79,4 Кбит/сек
Ширина : 1280 пикселей
Высота : 1024 пикселя
Соотношение сторон : 5:4
Режим частоты кадров : Переменный
Номинальная частота кадров : 29,970 кадров/сек
Битовая глубина : 8 бит
Язык : Russian (RU)

Аудио
Идентификатор : 1
Формат : WMA
Версия формата : Version 2
Идентификатор кодека : 161
Идентификатор кодека/Информация : Windows Media Audio
Описание кодека : Windows Media Audio 9 - 48 kbps, 44 kHz, mono 1-pass CBR
Продолжительность : 2 ч. 53 м.
Вид битрейта : Постоянный
Битрейт : 48,0 Кбит/сек
Каналы : 1 канал
Частота : 44,1 КГц
Битовая глубина : 16 бит
Размер потока : 59,5 Мбайт (37%)
Язык : Russian

Общее
Полное имя : D:\Проги\Видеоуроки\Уроки Python\Python. Уровень 2. Объектно - ориентированное программирование\2011-02-10_18.33_PITON2_31_01_11_02_RAD_v.wmv
Формат : Windows Media
Размер файла : 21,5 Мбайт
Режим общего битрейта : Переменный
Максимальный общий битрейт : 27,9 Мбит/сек
Дата кодирования : UTC 2011-02-10 15:33:53.625

Видео
Идентификатор : 3
Формат : GoToMeeting3
Идентификатор кодека : G2M3
Идентификатор кодека/Информация : Citrix Systems, Inc.
Вид битрейта : Переменный
Битрейт : 27,6 Мбит/сек
Ширина : 1280 пикселей
Высота : 1024 пикселя
Соотношение сторон : 5:4
Частота кадров : 29,970 кадров/сек
Битовая глубина : 8 бит
Бит/(Пиксели*Кадры) : 0.704
Язык : Russian (RU)

Аудио
Идентификатор : 1
Формат : WMA
Версия формата : Version 2
Идентификатор кодека : 161
Идентификатор кодека/Информация : Windows Media Audio
Описание кодека : Windows Media Audio 9 - 48 kbps, 44 kHz, mono 1-pass CBR
Вид битрейта : Постоянный
Битрейт : 48,0 Кбит/сек
Каналы : 1 канал
Частота : 44,1 КГц
Битовая глубина : 16 бит
Язык : Russian

Общее
Полное имя : D:\Проги\Видеоуроки\Уроки Python\Python. Уровень 2. Объектно - ориентированное программирование\2011-02-10_19.22_PITON2_31_01_11_02_RAD_v.wmv
Формат : Windows Media
Размер файла : 96,0 Мбайт
Продолжительность : 1 ч. 56 м.
Режим общего битрейта : Переменный
Общий поток : 115 Кбит/сек
Максимальный общий битрейт : 246 Кбит/сек
Дата кодирования : UTC 2011-02-10 16:22:10.671

Видео
Идентификатор : 3
Формат : GoToMeeting3
Идентификатор кодека : G2M3
Идентификатор кодека/Информация : Citrix Systems, Inc.
Вид битрейта : Переменный
Битрейт : 64,6 Кбит/сек
Ширина : 1280 пикселей
Высота : 1024 пикселя
Соотношение сторон : 5:4
Режим частоты кадров : Переменный
Номинальная частота кадров : 29,970 кадров/сек
Битовая глубина : 8 бит
Язык : Russian (RU)

Аудио
Идентификатор : 1
Формат : WMA
Версия формата : Version 2
Идентификатор кодека : 161
Идентификатор кодека/Информация : Windows Media Audio
Описание кодека : Windows Media Audio 9 - 48 kbps, 44 kHz, mono 1-pass CBR
Продолжительность : 1 ч. 56 м.
Вид битрейта : Постоянный
Битрейт : 48,0 Кбит/сек
Каналы : 1 канал
Частота : 44,1 КГц
Битовая глубина : 16 бит
Размер потока : 40,2 Мбайт (42%)
Язык : Russian

Общее
Полное имя : D:\Проги\Видеоуроки\Уроки Python\Python. Уровень 2. Объектно - ориентированное программирование\2011-02-11_17.36_PITON2_31_01_11_02_RAD_v.wmv
Формат : Windows Media
Размер файла : 125 Мбайт
Продолжительность : 2 ч. 44 м.
Режим общего битрейта : Переменный
Общий поток : 106 Кбит/сек
Максимальный общий битрейт : 237 Кбит/сек
Дата кодирования : UTC 2011-02-11 14:36:13.671

Видео
Идентификатор : 3
Формат : GoToMeeting3
Идентификатор кодека : G2M3
Идентификатор кодека/Информация : Citrix Systems, Inc.
Вид битрейта : Переменный
Битрейт : 55,8 Кбит/сек
Ширина : 1280 пикселей
Высота : 1024 пикселя
Соотношение сторон : 5:4
Режим частоты кадров : Переменный
Номинальная частота кадров : 29,970 кадров/сек
Битовая глубина : 8 бит
Язык : Russian (RU)

Аудио
Идентификатор : 1
Формат : WMA
Версия формата : Version 2
Идентификатор кодека : 161
Идентификатор кодека/Информация : Windows Media Audio
Описание кодека : Windows Media Audio 9 - 48 kbps, 44 kHz, mono 1-pass CBR
Продолжительность : 2 ч. 44 м.
Вид битрейта : Постоянный
Битрейт : 48,0 Кбит/сек
Каналы : 1 канал
Частота : 44,1 КГц
Битовая глубина : 16 бит
Размер потока : 56,6 Мбайт (45%)
Язык : Russian

Общее
Полное имя : D:\Проги\Видеоуроки\Уроки Python\Python. Уровень 2. Объектно - ориентированное программирование\g2m_codec.exe
Формат : MZ
Профиль формата : Executable / Intel i386
Размер файла : 4,28 Мбайт
Дата кодирования : UTC 2010-04-12 22:25:08
Время раздачи: По возможности :ad:pb.wtf



Скачать Специалист через торрент https://pic1.kartinco.top/images/2000/pc1gamjk6n.jpg Скачать, смотреть онлайн Специалист бесплантно в хорошем качестве Описание: Цель курса — получить базовые навыки объектно-ориентированного программирования, познакомиться с базовыми элементами языка ... 10 10 3
Info! Золотая раздача, скачанное не засчитывается.
Торрент: Зарегистрирован [2012-05-09 21:56] · скачан: 268 раз
Статус: √ проверено
Размер: 1.35 GB
Как cкачать? Как скачать Специалист через торрент | UTorrent

28-11-2019 20:33  

Отключить вcю реклaмy на сайте

10-05-2012 11:18 Специалист Скачать торрент  

Скачал. Сидирую 24/7pb.wtf



10-05-2012 22:51 Специалист Скачать торрент  

16-02-2021 19:01 Специалист Скачать торрент  

Народ, дайте пожалуйста скорости.
Или перенаправьте, у кого можно скачать. pb.wtf



    Дорогой пользователь! Огромная просьба, поблагодарите релизера, оцените раздачу и оставьте свои комментарий, если Вы скачали Специалист через торрент бесплатно!
    Комментировать посты могут только пользователи прошедшие не сложную регистрацию
    Показать сообщения:    

    Специалист через торрент
    Скачать бесплатно Специалист
    Специалист скачать торрент
    Специалист смотреть онлайн
    Cкачать фильм Специалист бесплатно
    Специалист скачать торрент в хорошем качестве
    Специалист смотреть онлайн бесплатно в хорошем качестве


    Вы не можете начинать темы
    Вы не можете отвечать на сообщения
    Вы не можете редактировать свои сообщения
    Вы не можете удалять свои сообщения
    Вы не можете голосовать в опросах
    Вы не можете прикреплять файлы к сообщениям
    Вы можете скачивать файлы