Доктор Стрэндж

Лицензия

Добыча

Дубляж

Уэнсдэй

1 сезон

Тор

Дубляж

В эфире

Дубляж

Там, где раки поют

MVO

Властелин колец

1 сезон

Deluxe

pack

Рекомендуем

30

Пиратка

ВАЖНО

ВАЖНО

Ghostwire

Пиратка

jed

RePack

nioh2

RePack

RDR2

RePack

NEED FOR SPEED™ PAYBACK

RePack

скачать торрент

Кинопоиск HD

Острые козырьки 6 сезон

6 сезон

FAR CRY 6

RePack

скачать торрент

Лицензия

скачать торрент

MVO

1

1 сезон

скачать торрент

1 сезон

скачать торрент

Лицензия

  

Пугало (Дмитрий Давыдов) [2021, Драма, WEB-DL 1080p] MVO [iTunes]

Пугало через торрент pb.wtf

Размер: 2.49 GB | Добавлен: 1 год 8 мес. назад | Торрент скачан:229 раз
Смотреть онлайн | Скачать   

25-03-2021 17:52 Пугало Скачать торрент  

Пугало
Год выпуска: 2021
Страна: Россия
Выпущено: Bonfire Production
Жанр: Драма
Продолжительность: 01:12:00
Перевод: Профессиональный (многоголосый, закадровый) | iTunes
Субтитры: Русские (Full)

Режиссер: Дмитрий Давыдов

rating

В ролях: Валентина Романова-Чыскыырай, Анатолий Стручков, Артур Захаров, Анилена Гурьева

Описание: Она — знахарка и отшельница. Ее ненавидят взрослые и боятся дети, но если случилась беда, она — единственный шанс на спасение. Для нее этот дар — проклятие, но мрачная тайна, сокрытая в прошлом, заставляет ее помогать людям снова и снова.

Качество: WEB-DL 1080p
Формат: MKV

Видео: MPEG-4 AVC, 4561 Kb/s, 1920х804, 24 fps
Аудио: 48 kHz, AC3 Dolby Digital, 3/2 (L, C, R, l, r) + LFE ch, ~384 Kbps
скриншот  скриншот  скриншот  скриншот  

Complete name : Pugalo.2020.WEB-DL.1080p.ELEKTRI4KA.UNIONGANG.mkv
Format : Matroska
Format version : Version 4
File size : 2.49 GiB
Duration : 1 h 12 min
Overall bit rate : 4 947 kb/s
Movie name : Pugalo.2020.WEB-DL.1080p.ELEKTRI4KA.UNIONGANG
Encoded date : UTC 2021-03-25 13:53:17
Writing application : mkvmerge v8.3.0 ('Over the Horizon') 64bit
Writing library : libebml v1.3.1 + libmatroska v1.4.2

Video
ID : 1
Format : AVC
Format/Info : Advanced Video Codec
Format profile : [email protected]
Format settings : CABAC / 5 Ref Frames
Format settings, CABAC : Yes
Format settings, Reference frames : 5 frames
Codec ID : V_MPEG4/ISO/AVC
Duration : 1 h 11 min
Bit rate : 4 561 kb/s
Width : 1 920 pixels
Height : 804 pixels
Display aspect ratio : 2.40:1
Frame rate mode : Constant
Frame rate : 24.000 FPS
Color space : YUV
Chroma subsampling : 4:2:0
Bit depth : 8 bits
Scan type : Progressive
Bits/(Pixel*Frame) : 0.123
Stream size : 2.29 GiB (92%)
Language : English
Default : Yes
Forced : No
Color range : Limited
Color primaries : BT.709
Transfer characteristics : BT.709
Matrix coefficients : BT.709

Audio
ID : 2
Format : AC-3
Format/Info : Audio Coding 3
Commercial name : Dolby Digital
Codec ID : A_AC3
Duration : 1 h 12 min
Bit rate mode : Constant
Bit rate : 384 kb/s
Channel(s) : 6 channels
Channel layout : L R C LFE Ls Rs
Sampling rate : 48.0 kHz
Frame rate : 31.250 FPS (1536 SPF)
Compression mode : Lossy
Stream size : 198 MiB (8%)
Title : Original (iTunes)
Language : Russian
Service kind : Complete Main
Default : Yes
Forced : No

Text
ID : 3
Format : UTF-8
Codec ID : S_TEXT/UTF8
Codec ID/Info : UTF-8 Plain Text
Duration : 1 h 4 min
Bit rate : 34 b/s
Count of elements : 334
Stream size : 16.3 KiB (0%)
Title : Full
Language : Russian
Default : No
Forced : No

Menu
00:00:00.000 : en:Глава 1
00:08:45.958 : en:Глава 2
00:16:36.874 : en:Глава 3
00:24:43.707 : en:Глава 4
00:31:26.998 : en:Глава 5
00:37:10.998 : en:Глава 6
00:44:27.081 : en:Глава 7
00:51:15.997 : en:Глава 8
00:57:04.913 : en:Глава 9
01:03:41.454 : en:Глава 10




Скачать Пугало через торрент https://d.radikal.ru/d02/2103/3d/fc7050e26997.png Скачать, смотреть онлайн Пугало бесплантно в хорошем качестве Описание: Она — знахарка и отшельница. Ее ненавидят взрослые и боятся дети, но если случилась беда, она — единственный шанс на спасение. ... 8.8 10 8
Торрент: Зарегистрирован [2021-03-25 17:52] · скачан: 229 раз
Статус: √ проверено
Размер: 2.49 GB
Как cкачать? Как скачать Пугало через торрент | UTorrent

28-11-2019 20:33  


Отключить вcю реклaмy на сайте, в т.ч. и в плеере онлайн просмотра!

26-03-2021 15:41 Пугало Скачать торрент  

Херь та еще. не тратьте время, фильм ни о чем. ИМХО



    Дорогой пользователь! Огромная просьба, поблагодарите релизера, оцените раздачу и оставьте свои комментарий, если Вы скачали Пугало через торрент бесплатно!!
    Комментировать посты могут только пользователи прошедшие не сложную регистрацию
    Показать сообщения:    


    Пугало через торрент
    Скачать бесплатно Пугало
    Пугало скачать торрент
    Пугало смотреть онлайн
    Cкачать фильм Пугало бесплатно
    Пугало скачать торрент в хорошем качестве
    Пугало смотреть онлайн бесплатно в хорошем качестве
    Вы не можете начинать темы
    Вы не можете отвечать на сообщения
    Вы не можете редактировать свои сообщения
    Вы не можете удалять свои сообщения
    Вы не можете голосовать в опросах
    Вы не можете прикреплять файлы к сообщениям
    Вы можете скачивать файлы
    Пугало [2021, Драма, WEB-DL 1080p] MVO [iTunes] смотреть онлайн, скачать торрент picoco.icu