Доктор Стрэндж

Лицензия

Добыча

Дубляж

Дом дракона

1 сезон

Тор

Дубляж

В эфире

Дубляж

Там, где раки поют

MVO

Властелин колец

1 сезон

Аренда ака

pack

Рекомендуем

30

Пиратка

ВАЖНО

ВАЖНО

Ghostwire

Пиратка

jed

RePack

nioh2

RePack

RDR2

RePack

NEED FOR SPEED™ PAYBACK

RePack

скачать торрент

Кинопоиск HD

Острые козырьки 6 сезон

6 сезон

FAR CRY 6

RePack

скачать торрент

Лицензия

скачать торрент

MVO

1

1 сезон

скачать торрент

1 сезон

скачать торрент

Лицензия

  

Связи нет / Disconnect (Генри Алекс Рубин) [2012, Триллер, драма, HDRip-AVC] MVO [Jaskier] от MediaBit

Связи нет через торрент pb.wtf

Размер: 2.16 GB | Добавлен: 1 год 7 мес. назад | Торрент скачан:33 раза
Смотреть онлайн | Скачать   

30-03-2021 17:03 Связи нет Скачать торрент  


Связи нет / Disconnect
Название: Связи нет
Оригинальное название: Disconnect
Год выхода: 2012
Жанр: триллер, драма
Режиссер: Генри Алекс Рубин

В ролях: Джейсон Бейтман, Хоуп Дэвис, Фрэнк Грилло, Микаэл Нюквист, Пола Пэттон, Андреа Райзборо, Александр Скарсгард, Макс Тириот, Колин Форд, Джона Бобо

Описание: Связи нет / Disconnect — современный и своевременный фильм, раскрывающий актуальную на сегодня проблему ухода людей из настоящей жизни в иллюзорный мир виртуальной реальности. Странно, что технологии созданные для того, чтобы людей сближать и объединять на самом деле делают их чужими и отстраненными от проблем друг друга. Стоит лишь внимательнее присмотреться, чтобы это заметить. Именно так и случается с несколькими героями этой жизненной драмы. Они делают попытки всеми силами наладить социальные связи с близкими, но повсюду натыкаются на мир проводов и ухода сознания собеседника в никуда. Вместо взаимопонимания — глухая стена. Удастся ли ее пробить?



Страна: США
Студия: Exclusive Media Group, Liddell Entertainment, Wonderful Films
Продолжительность: 01:55:39
Перевод: Профессиональный (многоголосый, закадровый) - Jaskier



Информация о файле:
Кодек: AVC
Формат: MKV
Качество: WEB-DLRip-AVC
Видео: MPEG-4 AVC, 1024x552, 23.976 fps, 1778 kbps
Аудио RU: AC3, 6 ch, 48 kHz, 448 kbps
Аудио EN: AC3, 6 ch, 48 kHz, 448 kbps
Субтитры: Russian (Full |Zelesk|), English
Навигация по главам: Да

семпл



***За дорожку Jaskier спасибо: dalemake
***Очистка от рекламы: mrrvg
x264 info: frame I:1244 Avg QP:12.98 size: 72093
x264 info: frame P:38326 Avg QP:16.48 size: 20008
x264 info: frame B:126817 Avg QP:19.03 size: 5391
General
Unique ID : 123046718079710903949662376338217739703 (0x5C91EF968A96F8809A857608952BA5B7)
Complete name : D:uTorrentРипы_от_wolf1245_MediaBitDisconnect.2012.MVO.Jaskier.HDRip-AVC.[wolf1245.MediaBit].mkv
Format : Matroska
Format version : Version 4
File size : 2.16 GiB
Duration : 1 h 55 min
Overall bit rate : 2 674 kb/s
Movie name : Disconnect.2012.MVO.Jaskier.HDRip-AVC.[wolf1245.MediaBit]
Encoded date : UTC 2021-03-30 16:46:05
Writing application : mkvmerge v55.0.0 ('Waiting For Space') 64-bit
Writing library : libebml v1.4.2 + libmatroska v1.6.4
Video
ID : 1
Format : AVC
Format/Info : Advanced Video Codec
Format profile : [email protected]
Format settings : CABAC / 12 Ref Frames
Format settings, CABAC : Yes
Format settings, Reference frames : 12 frames
Codec ID : V_MPEG4/ISO/AVC
Duration : 1 h 55 min
Bit rate : 1 778 kb/s
Width : 1 024 pixels
Height : 552 pixels
Display aspect ratio : 1.85:1
Frame rate mode : Constant
Frame rate : 23.976 (24000/1001) FPS
Color space : YUV
Chroma subsampling : 4:2:0
Bit depth : 8 bits
Scan type : Progressive
Bits/(Pixel*Frame) : 0.131
Stream size : 1.43 GiB (66%)
Title : wolf1245.MediaBit
Writing library : x264 core 157 r2958 57baac4
Encoding settings : cabac=1 / ref=12 / deblock=1:0:0 / analyse=0x3:0x133 / me=umh / subme=10 / psy=1 / psy_rd=1.00:0.05 / mixed_ref=1 / me_range=32 / chroma_me=1 / trellis=2 / 8x8dct=1 / cqm=0 / deadzone=21,11 / fast_pskip=1 / chroma_qp_offset=-3 / threads=10 / lookahead_threads=1 / sliced_threads=0 / nr=0 / decimate=1 / interlaced=0 / bluray_compat=0 / constrained_intra=0 / bframes=9 / b_pyramid=2 / b_adapt=2 / b_bias=0 / direct=3 / weightb=1 / open_gop=0 / weightp=2 / keyint=240 / keyint_min=24 / scenecut=40 / intra_refresh=0 / rc_lookahead=60 / rc=2pass / mbtree=1 / bitrate=1778 / ratetol=1.0 / qcomp=0.60 / qpmin=0 / qpmax=69 / qpstep=4 / cplxblur=20.0 / qblur=0.5 / vbv_maxrate=50000 / vbv_bufsize=62500 / nal_hrd=none / filler=0 / ip_ratio=1.40 / aq=1:0.80
Language : English
Default : Yes
Forced : No
Audio #1
ID : 2
Format : AC-3
Format/Info : Audio Coding 3
Commercial name : Dolby Digital
Codec ID : A_AC3
Duration : 1 h 55 min
Bit rate mode : Constant
Bit rate : 448 kb/s
Channel(s) : 6 channels
Channel layout : L R C LFE Ls Rs
Sampling rate : 48.0 kHz
Frame rate : 31.250 FPS (1536 SPF)
Bit depth : 32 bits
Compression mode : Lossy
Stream size : 371 MiB (17%)
Title : MVO | Jaskier
Language : Russian
Service kind : Complete Main
Default : Yes
Forced : No
Audio #2
ID : 3
Format : AC-3
Format/Info : Audio Coding 3
Commercial name : Dolby Digital
Codec ID : A_AC3
Duration : 1 h 55 min
Bit rate mode : Constant
Bit rate : 448 kb/s
Channel(s) : 6 channels
Channel layout : L R C LFE Ls Rs
Sampling rate : 48.0 kHz
Frame rate : 31.250 FPS (1536 SPF)
Bit depth : 32 bits
Compression mode : Lossy
Stream size : 371 MiB (17%)
Title : Original
Language : English
Service kind : Complete Main
Default : No
Forced : No
Text #1
ID : 4
Format : UTF-8
Codec ID : S_TEXT/UTF8
Codec ID/Info : UTF-8 Plain Text
Duration : 1 h 49 min
Bit rate : 109 b/s
Count of elements : 1343
Stream size : 87.5 KiB (0%)
Title : Full | Zelesk |
Language : Russian
Default : No
Forced : No
Text #2
ID : 5
Format : UTF-8
Codec ID : S_TEXT/UTF8
Codec ID/Info : UTF-8 Plain Text
Duration : 1 h 49 min
Bit rate : 58 b/s
Count of elements : 1226
Stream size : 47.0 KiB (0%)
Language : English
Default : No
Forced : No
Menu
00:00:00.000 : :00:00:00.000
00:07:07.344 : :00:07:07.344
00:13:45.158 : :00:13:45.158
00:19:52.316 : :00:19:52.316
00:24:54.868 : :00:24:54.868
00:29:57.254 : :00:29:57.254
00:37:49.267 : :00:37:49.267
00:45:17.465 : :00:45:17.465
00:51:18.450 : :00:51:18.450
00:58:34.010 : :00:58:34.010
01:04:35.622 : :01:04:35.622
01:10:56.961 : :01:10:56.961
01:17:00.199 : :01:17:00.199
01:22:32.948 : :01:22:32.948
01:31:25.438 : :01:31:25.438
01:42:54.001 : :01:42:54.001
Релиз от: amp; MediaBit




Скачать Связи нет через торрент https://i114.fastpic.ru/big/2021/0330/5d/478d568fb6916eae7e8e2d9cf5dd7d5d.jpg Скачать, смотреть онлайн Связи нет бесплантно в хорошем качестве Описание: Связи нет / Disconnect — современный и своевременный фильм, раскрывающий актуальную на сегодня проблему ухода людей из ... 10 10 1
Торрент: Зарегистрирован [2021-03-30 17:03] · скачан: 33 раз
Статус: √ проверено
Размер: 2.16 GB
Как cкачать? Как скачать Связи нет через торрент | UTorrent

28-11-2019 20:33  


Отключить вcю реклaмy на сайте, в т.ч. и в плеере онлайн просмотра!

    Дорогой пользователь! Огромная просьба, поблагодарите релизера, оцените раздачу и оставьте свои комментарий, если Вы скачали Связи нет через торрент бесплатно!!
    Комментировать посты могут только пользователи прошедшие не сложную регистрацию
    Показать сообщения:    


    Связи нет через торрент
    Скачать бесплатно Связи нет
    Связи нет скачать торрент
    Связи нет смотреть онлайн
    Cкачать фильм Связи нет бесплатно
    Связи нет скачать торрент в хорошем качестве
    Связи нет смотреть онлайн бесплатно в хорошем качестве
    Вы не можете начинать темы
    Вы не можете отвечать на сообщения
    Вы не можете редактировать свои сообщения
    Вы не можете удалять свои сообщения
    Вы не можете голосовать в опросах
    Вы не можете прикреплять файлы к сообщениям
    Вы можете скачивать файлы
    Связи нет / Disconnect [2012, Триллер, драма, HDRip-AVC] MVO [Jaskier] от MediaBit смотреть онлайн, скачать торрент picoco.icu