Всегда рабочее зеркало без VPN и Proxy просто перед .vidak.icu напиши любое слово или цифру, Пример http://xb18.vidak.icu

iTunes

2 сезон

1 сезон

1

1 сезон

iTunes

2 сезон

13

1 сезон

Deluxe

pack

Рекомендуем

Пиратка

30

ВАЖНО

RePack

MK11

RePack

jed

RePack

fifa19

RePack

RDR2

RePack

NEED FOR SPEED™ PAYBACK

Кинопоиск HD

6 сезон

 Острые козырьки 6 сезон

Все сериалы

все сериалы на PB.wtf

RePack

FAR CRY 5

Anonymous, нам критически не хватает 5601 руб. на оплату серверов и переферии за Апрель, помоги нам пожалуйста, вся надежда только на тебя. В благодарность мы отключим тебе всю рекламу на сайте!

×
  
Magnet ссылка

Глубокое погружение / The Rift (Хуан Пикер Симон) [1990, ужасы, фантастика, боевик, триллер, приключения, BDRip 720p by msltel] AVO pb.wtf

Глубокое погружение через торрент pb.wtf

Размер: 3.84 GB | Добавлен: 5 лет 1 мес. назад | Торрент скачан:49 раз
Смотреть онлайн Глубокое погружение | Скачать    Ребята, помогите собрать деньги на оплату серверов!!!

11-04-2017 10:47 Глубокое погружение Скачать торрент  

Название: Глубокое погружение
Оригинальное название: The Rift
Год выпуска: 1990
Страна: Испания, США
Жанр: ужасы, фантастика, боевик, триллер, приключения
Продолжительность: 01:23:02
Перевод: авторский

Режиссёр: Хуан Пикер Симон

В ролях: Джек Скалия, Р. Ли Эрми, Рэй Уайз, Дебора Эдейр, Джон Тоулс-Бей, Эли Пугет, Эмилио Линдер, Тони Исберт, Альваро Лабра, Луис Лоренсо

Описание: После того, как затонула подводная лодка «Сирена-1», на её поиски отправляется другая подлодка «Сирена-2». Участвовать в экспедиции приглашают проектировщика первой субмарины Вика Хэйеса. Экипаж с большим трудом погружается в подводную расщелину, слегка поцарапав корпус, и вскоре сталкивается с жизнью на огромной глубине. Причём жизнь вовсе недружелюбная. После нескольких погружений обнаруживаются плотоядные морские водоросли, а ещё чуть позже масса зловредных и охочих до человеческой плоти организмов, которые стали результатом генетических экспериментов над животными на «Сирене-1»...



Качество: BDRip 720p
Формат: MKV
Видео: MPEG-4 AVC, 6231 Кбит/с, 1200x720, 23,976 кадра/с
Аудио 1: русский, AC3, 192 kbps, 2 ch, 48 kHz [авторский, Вартан Дохалов]
Аудио 2: английский, AC3, 192 kbps, 2 ch, 48 kHz [оригинал]
Имеются неименованные главы/чаптеры.
Общее
Уникальный идентификатор : 250433408718859551590861616027057373666 (0xBC67B857FE20FC4DB7DFF5320761C1E2)
Полное имя : D:\Video\Глубокое погружение.1990.BDRip.720p by msltel.mkv
Формат : Matroska
Версия формата : Version 4 / Version 2
Размер файла : 3,84 Гбайт
Продолжительность : 1 ч. 23 м.
Общий поток : 6617 Кбит/сек
Название фильма : Rip by msltel
Дата кодирования : UTC 2017-04-11 01:24:07
Программа кодирования : mkvmerge v8.2.0 ('World of Adventure') 64bit
Библиотека кодирования : libebml v1.3.1 + libmatroska v1.4.2

Видео
Идентификатор : 1
Формат : AVC
Формат/Информация : Advanced Video Codec
Профиль формата : High@L4.1
Параметр CABAC формата : Да
Параметр ReFrames формата : 9 кадров
Идентификатор кодека : V_MPEG4/ISO/AVC
Продолжительность : 1 ч. 23 м.
Битрейт : 6231 Кбит/сек
Ширина : 1200 пикселей
Высота : 720 пикселей
Соотношение сторон : 5:3
Режим частоты кадров : Постоянный
Частота кадров : 23,976 (24000/1001) кадра/сек
Цветовое пространство : YUV
Субдискретизация насыщенности : 4:2:0
Битовая глубина : 8 бит
Тип развёртки : Прогрессивная
Бит/(Пиксели*Кадры) : 0.301
Размер потока : 3,61 Гбайт (94%)
Библиотека кодирования : x264 core 146 r2538 121396c
Настройки программы : cabac=1 / ref=9 / deblock=1:-3:-2 / analyse=0x3:0x113 / me=umh / subme=11 / psy=1 / psy_rd=1.00:0.15 / mixed_ref=1 / me_range=32 / chroma_me=1 / trellis=2 / 8x8dct=1 / cqm=0 / deadzone=21,11 / fast_pskip=0 / chroma_qp_offset=-3 / threads=6 / lookahead_threads=1 / sliced_threads=0 / nr=0 / decimate=1 / interlaced=0 / bluray_compat=0 / constrained_intra=0 / bframes=14 / b_pyramid=2 / b_adapt=2 / b_bias=0 / direct=1 / weightb=1 / open_gop=0 / weightp=2 / keyint=230 / keyint_min=23 / scenecut=40 / intra_refresh=0 / rc_lookahead=40 / rc=crf / mbtree=0 / crf=20.3 / qcomp=0.60 / qpmin=0 / qpmax=69 / qpstep=4 / vbv_maxrate=62500 / vbv_bufsize=78125 / crf_max=0.0 / nal_hrd=none / filler=0 / ip_ratio=1.40 / pb_ratio=1.30 / aq=1:1.00
Язык : English
Default : Да
Forced : Нет

Аудио #1
Идентификатор : 2
Формат : AC-3
Формат/Информация : Audio Coding 3
Параметр Endianness формата : Big
Идентификатор кодека : A_AC3
Продолжительность : 1 ч. 23 м.
Вид битрейта : Постоянный
Битрейт : 192 Кбит/сек
Каналы : 2 канала
Расположение каналов : Front: L R
Частота : 48,0 КГц
Частота кадров : 31,250 кадров/сек (1536 spf)
Битовая глубина : 16 бит
Метод сжатия : С потерями
Размер потока : 114 Мбайт (3%)
Заголовок : AVO (Вартан Дохалов)
Язык : Russian
ServiceKind/String : Complete Main
Default : Да
Forced : Нет

Аудио #2
Идентификатор : 3
Формат : AC-3
Формат/Информация : Audio Coding 3
Параметр Endianness формата : Big
Идентификатор кодека : A_AC3
Продолжительность : 1 ч. 23 м.
Вид битрейта : Постоянный
Битрейт : 192 Кбит/сек
Каналы : 2 канала
Расположение каналов : Front: L R
Частота : 48,0 КГц
Частота кадров : 31,250 кадров/сек (1536 spf)
Битовая глубина : 16 бит
Метод сжатия : С потерями
Размер потока : 114 Мбайт (3%)
Заголовок : original
Язык : English
ServiceKind/String : Complete Main
Default : Нет
Forced : Нет

Меню
00:00:00.000 : en:Chapter 1
00:04:31.605 : en:Chapter 2
00:09:19.601 : en:Chapter 3
00:16:48.257 : en:Chapter 4
00:20:09.875 : en:Chapter 5
00:27:19.888 : en:Chapter 6
00:33:27.506 : en:Chapter 7
00:36:16.007 : en:Chapter 8
00:41:52.677 : en:Chapter 9
00:49:51.030 : en:Chapter 10
00:57:54.179 : en:Chapter 11
01:04:39.876 : en:Chapter 12
01:11:27.492 : en:Chapter 13
01:20:31.744 : en:Chapter 14
pb.wtf



Скачать Глубокое погружение через торрент http://hostpic.gq/img/2017-04/11/qzi84n6nbcrusvxevdq7z9zue.jpg Скачать, смотреть онлайн Глубокое погружение бесплантно в хорошем качестве Описание: После того, как затонула подводная лодка «Сирена-1», на её поиски отправляется другая подлодка «Сирена-2». Участвовать в ... 10 10 3
Info! Золотая раздача, скачанное не засчитывается.
Торрент: Зарегистрирован [2017-04-11 10:47] · скачан: 49 раз
Статус: √ проверено
Размер: 3.84 GB
Как cкачать? Как скачать Глубокое погружение через торрент | UTorrent

% Раздел Тема Автор DL S | L
Фильмы с авторской озвучкой [ 10.2 GB ] Глубокое погружение / The Rift [1990 BDRip 1080p by msltel] AVO msltel Скачать
1 | 0
Фильмы (Blu-ray, BD-Remux, HDDVD) [ 18.31 GB ] Глубокое погружение / The Rift [1990 BDRemux 1080p] AVO Russian Mafia Скачать
1 | 0

28-11-2019 20:33  

Отключить всю рекламу на сайте

10-04-2021 22:00 Глубокое погружение Скачать торрент  

Неплохо, даже для искушенного киномана, что то в жанре 72 метраpb.wtf



    Дорогой пользователь! Огромная просьба, поблагодарите релизера, оцените раздачу и оставьте свои комментарий, если Вы скачали Глубокое погружение через торрент бесплатно!
    Комментировать посты могут только пользователи прошедшие не сложную регистрацию
    Показать сообщения:    

    Глубокое погружение через торрент
    Скачать бесплатно Глубокое погружение
    Глубокое погружение скачать торрент
    Глубокое погружение смотреть онлайн
    Cкачать фильм Глубокое погружение бесплатно
    Глубокое погружение скачать торрент в хорошем качестве
    Глубокое погружение смотреть онлайн бесплатно в хорошем качестве


    Вы не можете начинать темы
    Вы не можете отвечать на сообщения
    Вы не можете редактировать свои сообщения
    Вы не можете удалять свои сообщения
    Вы не можете голосовать в опросах
    Вы не можете прикреплять файлы к сообщениям
    Вы можете скачивать файлы