Всегда рабочее зеркало без VPN и Proxy просто перед .vidak.icu напиши любое слово или цифру, Пример http://nmgy.vidak.icu

MVO

MVO

1 сезон

1

1 сезон

iTunes

1 сезон

13

1 сезон

Deluxe

pack

Рекомендуем

Repack

30

ВАЖНО

RePack

MK11

RePack

jed

RePack

fifa19

RePack

RDR2

RePack

NEED FOR SPEED™ PAYBACK

Кинопоиск HD

6 сезон

 Острые козырьки 6 сезон

Все сериалы

все сериалы на PB.wtf

RePack

FAR CRY 5
  
Magnet ссылка

Асоциальная сеть / Silk Road (Тиллер Расселл) [2021, Триллер, драма, криминал, BD Remux 1080p] DUB [iTunes] +MVO [HDRezka Studio] +AVO [A. Карповский] pb.wtf

Асоциальная сеть через торрент pb.wtf

Размер: 30.7 GB | Добавлен: 1 год 3 мес. назад | Торрент скачан:35 раз
Смотреть онлайн Асоциальная сеть | Скачать    Ребята, помогите собрать деньги на оплату серверов!!!

12-04-2021 03:39 Асоциальная сеть Скачать торрент  

Асоциальная сеть | Silk Road
Год выпуска: 2021
Страна: США
Студия: High Frequency Entertainment, Mutressa Movies, Perfect Season Productions, Piccadilly Pictures
Жанр: Триллер, драма, криминал
Продолжительность: 01:56:45
Перевод(ы):
#1: Дублированный | iTunes
#2: Профессиональный (многоголосый) | HDRezka Studio
#3: Авторский (одноголосый, закадровый) | A. Карповский
Субтитры: Русские (Forced), английские (Full, SDH)

Режиссер: Тиллер Расселл

rating

В ролях: Ник Робинсон, Дженнифер Юн, Джимми Симпсон, Джейсон Кларк, Пол Блотт, Даррел Бритт-Гибсон, Дэниэл Дэвид Стюарт, Кеннет Миллер, Александра Шипп, Кэтрин Аселтон

Описание: В мире супергероев он был бы Джокером. Настоящий суперзлодей, бросивший вызов системе. Он создал свой «Амазон» в мире даркнета, где преступники со всего мира сбывали оружие, поддельные документы и наркотики. Многомиллионное состояние, возможность по щелчку пальцев организовать любую хакерскую атаку и вооружить небольшую страну — кажется, он был неуязвим. Но как и всякий злодей он встретил своего антагониста.

Качество: BD Remux 1080p
Формат: MKV

Видео: MPEG-4 AVC, 1920x1080, 32.3 Mbit/s, 23.976 fps
Аудио #01: 48 kHz, AC3, 5.1, 384 Kbps | Дублированный | RUS |
Аудио #02: 48 kHz, AC3, 5.1, 448 Kbps | Профессиональный многоолосый | RUS |
Аудио #03: 48 kHz, AC3, 5.1, 384 Kbps | Авторский | RUS |
Аудио #04: 48 kHz, DTS-HD MA, 5.1, 2167 Kbps | Оригинал | ENG |
скриншот  скриншот  скриншот  скриншот  

General
Unique ID : 171383478894126736341210800217796382864 (0x80EF41E4CE38A4D1281B408D56881090)
Complete name : F:VideoSilk.Road.2021.BDREMUX.1080p.seleZen.mkv
Format : Matroska
Format version : Version 4
File size : 30.7 GiB
Duration : 1 h 56 min
Overall bit rate mode : Variable
Overall bit rate : 37.6 Mb/s
Movie name : Silk Road 2021 from seleZen
Encoded date : UTC 2021-04-11 20:12:06
Writing application : mkvmerge v55.0.0 ('Waiting For Space') 64-bit
Writing library : libebml v1.4.2 + libmatroska v1.6.4

Video
ID : 1
Format : AVC
Format/Info : Advanced Video Codec
Format profile : [email protected]
Format settings : CABAC / 4 Ref Frames
Format settings, CABAC : Yes
Format settings, Reference : 4 frames
Codec ID : V_MPEG4/ISO/AVC
Duration : 1 h 56 min
Bit rate mode : Variable
Bit rate : 34.3 Mb/s
Maximum bit rate : 37.0 Mb/s
Width : 1 920 pixels
Height : 1 080 pixels
Display aspect ratio : 16:9
Frame rate mode : Constant
Frame rate : 23.976 (24000/1001) FPS
Color space : YUV
Chroma subsampling : 4:2:0
Bit depth : 8 bits
Scan type : Progressive
Bits/(Pixel*Frame) : 0.689
Stream size : 27.9 GiB (91%)
Language : English
Default : Yes
Forced : No

Audio #1
ID : 2
Format : AC-3
Format/Info : Audio Coding 3
Commercial name : Dolby Digital
Codec ID : A_AC3
Duration : 1 h 56 min
Bit rate mode : Constant
Bit rate : 384 kb/s
Channel(s) : 6 channels
Channel layout : L R C LFE Ls Rs
Sampling rate : 48.0 kHz
Frame rate : 31.250 FPS (1536 SPF)
Compression mode : Lossy
Delay relative to video : 8 ms
Stream size : 320 MiB (1%)
Title : iTunes
Language : Russian
Service kind : Complete Main
Default : Yes
Forced : Yes

Audio #2
ID : 3
Format : AC-3
Format/Info : Audio Coding 3
Commercial name : Dolby Digital
Codec ID : A_AC3
Duration : 1 h 56 min
Bit rate mode : Constant
Bit rate : 448 kb/s
Channel(s) : 6 channels
Channel layout : L R C LFE Ls Rs
Sampling rate : 48.0 kHz
Frame rate : 31.250 FPS (1536 SPF)
Compression mode : Lossy
Stream size : 374 MiB (1%)
Title : MVO [HDRezka Studio]
Language : Russian
Service kind : Complete Main
Default : No
Forced : No

Audio #3
ID : 4
Format : AC-3
Format/Info : Audio Coding 3
Commercial name : Dolby Digital
Codec ID : A_AC3
Duration : 1 h 56 min
Bit rate mode : Constant
Bit rate : 384 kb/s
Channel(s) : 6 channels
Channel layout : L R C LFE Ls Rs
Sampling rate : 48.0 kHz
Frame rate : 31.250 FPS (1536 SPF)
Compression mode : Lossy
Stream size : 321 MiB (1%)
Title : AVO [Антон Карповский]
Language : Russian
Service kind : Complete Main
Default : No
Forced : No

Audio #4
ID : 5
Format : DTS XLL
Format/Info : Digital Theater Systems
Commercial name : DTS-HD Master Audio
Codec ID : A_DTS
Duration : 1 h 56 min
Bit rate mode : Variable
Bit rate : 2 167 kb/s
Channel(s) : 6 channels
Channel layout : C L R Ls Rs LFE
Sampling rate : 48.0 kHz
Frame rate : 93.750 FPS (512 SPF)
Bit depth : 24 bits
Compression mode : Lossless
Stream size : 1.77 GiB (6%)
Title : Original
Language : English
Default : No
Forced : No

Text #1
ID : 6
Format : UTF-8
Codec ID : S_TEXT/UTF8
Codec ID/Info : UTF-8 Plain Text
Duration : 1 h 49 min
Bit rate : 10 b/s
Count of elements : 135
Stream size : 8.67 KiB (0%)
Title : Forced
Language : Russian
Default : Yes
Forced : Yes

Text #2
ID : 7
Format : UTF-8
Codec ID : S_TEXT/UTF8
Codec ID/Info : UTF-8 Plain Text
Duration : 1 h 47 min
Bit rate : 73 b/s
Count of elements : 1567
Stream size : 57.7 KiB (0%)
Title : Full
Language : English
Default : No
Forced : No

Text #3
ID : 8
Format : UTF-8
Codec ID : S_TEXT/UTF8
Codec ID/Info : UTF-8 Plain Text
Duration : 1 h 48 min
Bit rate : 79 b/s
Count of elements : 1729
Stream size : 63.2 KiB (0%)
Title : SDH
Language : English
Default : No
Forced : No

Menu
00:00:00.000 : en:Chapter 01
00:04:57.797 : en:Chapter 02
00:10:53.987 : en:Chapter 03
00:18:47.251 : en:Chapter 04
00:24:07.821 : en:Chapter 05
00:30:02.759 : en:Chapter 06
00:34:28.733 : en:Chapter 07
00:40:52.492 : en:Chapter 08
00:47:19.545 : en:Chapter 09
00:55:24.238 : en:Chapter 10
01:04:29.074 : en:Chapter 11
01:13:10.052 : en:Chapter 12
01:21:47.820 : en:Chapter 13
01:30:01.730 : en:Chapter 14
01:37:16.164 : en:Chapter 15
01:44:16.917 : en:Chapter 16

pb.wtf



Скачать Асоциальная сеть через торрент https://d.radikal.ru/d30/2102/24/0baffb981fd7.jpg Скачать, смотреть онлайн Асоциальная сеть бесплантно в хорошем качестве Описание: В мире супергероев он был бы Джокером. Настоящий суперзлодей, бросивший вызов системе. Он создал свой «Амазон» в мире даркнета, ... 9.7 10 3
Торрент: Зарегистрирован [2021-04-12 03:39] · скачан: 35 раз
Статус: √ проверено
Размер: 30.7 GB
Как cкачать? Как скачать Асоциальная сеть через торрент | UTorrent

% Раздел Тема Автор DL S | L
Фильмы 2021 [DVDrip, WEB-DLRip, HDrip] (DUB, MVO) [ 2.18 GB ] Асоциальная сеть / Silk Road [2021 BDRip] DUB [Akimbo Production / Blu-ray RUS] bober100 Скачать
1 | 0
Фильмы 2021 [DVDrip, WEB-DLRip, HDrip] (DUB, MVO) [ 2.18 GB ] Асоциальная сеть / Silk Road [2021 BDRip] - [] Twi7ter Скачать
1 | 0
Фильмы 2021 [DVDrip, WEB-DLRip, HDrip] (DUB, MVO) [ 1.46 GB ] Асоциальная сеть / Silk Road [2021 BDRip] - [] Twi7ter Скачать
2 | 0
Фильмы 2021 [DVDrip, WEB-DLRip, HDrip] (DUB, MVO) [ 1.46 GB ] Асоциальная сеть / Silk Road [2021 BDRip] DUB [Akimbo Production / Blu-ray RUS] bober100 Скачать
1 | 0
Фильмы [HD 720p, 1080p] (Хороший звук DUB, MVO) [ 8.03 GB ] Асоциальная сеть / Silk Road [2021 BDRip 1080p] +MVO [HDRezka Studio] +AVO [A. Карповский] bober100 Скачать
1 | 0
Фильмы 2021 [DVDrip, WEB-DLRip, HDrip] (DUB, MVO) [ 2.18 GB ] Асоциальная сеть / Silk Road [2021 BDRip] MVO [HDRezka Studio] bober100 Скачать
2 | 0
Фильмы 2021 [DVDrip, WEB-DLRip, HDrip] (DUB, MVO) [ 1.46 GB ] Асоциальная сеть / Silk Road [2021 BDRip] MVO [HDRezka Studio] bober100 Скачать
1 | 0

28-11-2019 20:33  

Отключить вcю реклaмy на сайте

    Дорогой пользователь! Огромная просьба, поблагодарите релизера, оцените раздачу и оставьте свои комментарий, если Вы скачали Асоциальная сеть через торрент бесплатно!
    Комментировать посты могут только пользователи прошедшие не сложную регистрацию
    Показать сообщения:    

    Асоциальная сеть через торрент
    Скачать бесплатно Асоциальная сеть
    Асоциальная сеть скачать торрент
    Асоциальная сеть смотреть онлайн
    Cкачать фильм Асоциальная сеть бесплатно
    Асоциальная сеть скачать торрент в хорошем качестве
    Асоциальная сеть смотреть онлайн бесплатно в хорошем качестве


    Вы не можете начинать темы
    Вы не можете отвечать на сообщения
    Вы не можете редактировать свои сообщения
    Вы не можете удалять свои сообщения
    Вы не можете голосовать в опросах
    Вы не можете прикреплять файлы к сообщениям
    Вы можете скачивать файлы