Доктор Стрэндж

Лицензия

Добыча

MVO

Дом дракона

1 сезон

Тор

Лицензия

Мэверик

Лицензия

Там, где раки поют

MVO

Властелин колец

1 сезон

Ultimate

pack

Рекомендуем

30

Repack

ВАЖНО

ВАЖНО

Ghostwire

RePack

jed

RePack

nioh2

RePack

RDR2

RePack

NEED FOR SPEED™ PAYBACK

RePack

скачать торрент

Кинопоиск HD

Острые козырьки 6 сезон

6 сезон

FAR CRY 6

RePack

скачать торрент

Лицензия

скачать торрент

MVO

1

1 сезон

скачать торрент

1 сезон

скачать торрент

Лицензия

  

Скорость / Speed (Ян Де Бонт) [1994, Боевик, катастрофа, триллер, криминал, UHD BDRemux 2160p] 3xMVO+DUB+3xAVO

Скорость через торрент pb.wtf

Размер: 64.69 GB | Добавлен: 1 год 5 мес. назад | Торрент скачан:40 раз
Смотреть онлайн Скорость | Скачать   

27-04-2021 14:28 Скорость Скачать торрент  

Скорость | Speed
Год выпуска: 1994
Страна: США
Студия: 20th Century Fox
Жанр: Боевик, катастрофа, триллер, криминал
Продолжительность: 01:55:54
Перевод(ы):
#1: Многолосый закадровый | 20th Century Fox
#2: Многолосый закадровый | Киномания
#3: Дублированный | c VHS
#4: Многолосый закадровый | Карусель
#5: Одноголосый закадровый | А.Гаврилов
#6: Одноголосый закадровый | В.Горчаков
#7: Одноголосый закадровый | Ю.Живов
Субтитры: Русские, английские

Режиссер: Ян Де Бонт

rating

В ролях: Киану Ривз, Сандра Баллок, Дэннис Хоппер, Джо Мортон, Джефф Дэниелс, Алан Рак, Гленн Пламмер, Ричард Лайнбэк, Бет Грант, Хоторн Джеймс, Карлос Карраско, Дэвид Кригел, Натсуко Охама, Дэниэл Вильярреаль, Симона Гад, Лоретта Жан Крадап, Шерри Вильянуэва, Маргарет Медина, Джордан Лунд, Роберт Мейлхаус, Патрик Фишлер, Патрик Джон Хёрли, Сьюзэн Барнс, Джейн Кроули, Энн О`Салливан, Бо Старр, Джон Каподиче, Томас Розалес мл., Джеймс ДюМонт, Антонио Мора, Пэтти Той, Тодд Гордон, Брюс Райт

Описание: Представьте себе девушку, у которой на заднем стекле автомобиля красуется наклейка с восклицательным знаком, чайником и странного вида туфлей с подписью "уважай меня". Теперь представьте эту девушку за рулем гигантского американского автобуса, несущегося по городу на огромной скорости в час пик. Выглядит это довольно забавно, если не знать, что автобус заминирован и может взорваться, если стрелка спидометра опустится ниже восьмидесяти километров в час. Пассажиры в панике, события разворачивается с бешеной скоростью, а времени до взрыва остается все меньше. На поиски таинственного террориста, который уже доказал серьезность своих намерений, взорвав переполненный людьми лифт, брошены элитные подразделения полиции. Но время идет, а выйти на след преступника так и не удается. В противоборство с террористом вступает лучший боец спецназа Джек Трейвен. Теперь от того, сможет ли он верно распорядиться оставшимися секундами, зависят жизни десятков людей.

Качество: UHD BDRemux 2160p
Формат: MKV

Видео: 3840x2160 at 23.976 fps, MPEG-H HEVC HDR Video, ~ 59600 kbps avg
Аудио #1: Russian 48 kHz, AC3, 3/2 (L,C,R,l,r) + LFE ch, ~448.00 kbps avg |Многолосый закадровый, 20th Century Fox|
Аудио #2: Russian 48 kHz, AC3, 3/2 (L,C,R,l,r) + LFE ch, ~448.00 kbps avg |Многолосый закадровый, Киномания|
Аудио #3: Russian 48 kHz, AC3, 2/0 (L,R) ch, ~192.00 kbps avg |Дубляж, c VHS|
Аудио #4: Russian 48 kHz/24-bit, DTS-HD MA 5.1, ~3850.00 kbps avg (DTS Core: 5.1 / 48 kHz / 1509 kbps / 24-bit) |Многолосый закадровый, Карусель|
Аудио #5: Russian 48 kHz/24-bit, DTS-HD MA 5.1, ~3848.00 kbps avg (DTS Core: 5.1 / 48 kHz / 1509 kbps / 24-bit) |Одноголосый закадровый, А.Гаврилов|
Аудио #6: Russian 48 kHz/24-bit, DTS-HD MA 5.1, ~3842.00 kbps avg (DTS Core: 5.1 / 48 kHz / 1509 kbps / 24-bit) |Одноголосый закадровый, В.Горчаков|
Аудио #7: Russian 48 kHz/24-bit, DTS-HD MA 5.1, ~3853.00 kbps avg (DTS Core: 5.1 / 48 kHz / 1509 kbps / 24-bit) |Одноголосый закадровый, Ю.Живов|
Аудио #8: English 48 kHz/24-bit, DTS-HD MA 5.1, ~3830.00 kbps avg (DTS Core: 5.1 / 48 kHz / 1509 kbps / 24-bit)
скриншот  скриншот  скриншот  

скриншот  скриншот  скриншот  

General
Unique ID : 48589097890465389441607047258368419471 (0x248DEB7BEE922F85AED6F18ECA50A68F)
Complete name : F:VideoSpeed.1994.BDREMUX.2160p.HDR.seleZen.mkv
Format : Matroska
Format version : Version 4
File size : 64.7 GiB
Duration : 1 h 55 min
Overall bit rate mode : Variable
Overall bit rate : 79.9 Mb/s
Movie name : Speed 1994 4K UHD from seleZen
Encoded date : UTC 2021-04-27 13:50:23
Writing application : mkvmerge v55.0.0 ('Waiting For Space') 64-bit
Writing library : libebml v1.4.2 + libmatroska v1.6.4

Video
ID : 1
Format : HEVC
Format/Info : High Efficiency Video Coding
Format profile : Main [email protected]@High
HDR format : SMPTE ST 2086, HDR10 compatible
Codec ID : V_MPEGH/ISO/HEVC
Duration : 1 h 55 min
Bit rate : 59.6 Mb/s
Width : 3 840 pixels
Height : 2 160 pixels
Display aspect ratio : 16:9
Frame rate mode : Constant
Frame rate : 23.976 (24000/1001) FPS
Color space : YUV
Chroma subsampling : 4:2:0 (Type 2)
Bit depth : 10 bits
Bits/(Pixel*Frame) : 0.300
Stream size : 48.2 GiB (75%)
Writing library : ATEME Titan File 3.9.6 (4.9.6.2)
Language : English
Default : Yes
Forced : No
Color range : Limited
Color primaries : BT.2020
Transfer characteristics : PQ
Matrix coefficients : BT.2020 non-constant
Mastering display color pri : Display P3
Mastering display luminance : min: 0.0050 cd/m2, max: 1000 cd/m2

Audio #1
ID : 2
Format : AC-3
Format/Info : Audio Coding 3
Commercial name : Dolby Digital
Codec ID : A_AC3
Duration : 1 h 55 min
Bit rate mode : Constant
Bit rate : 448 kb/s
Channel(s) : 6 channels
Channel layout : L R C LFE Ls Rs
Sampling rate : 48.0 kHz
Frame rate : 31.250 FPS (1536 SPF)
Compression mode : Lossy
Stream size : 371 MiB (1%)
Title : |Многолосый закадровый, 20th Century Fox|
Language : Russian
Service kind : Complete Main
Default : Yes
Forced : Yes

Audio #2
ID : 3
Format : AC-3
Format/Info : Audio Coding 3
Commercial name : Dolby Digital
Codec ID : A_AC3
Duration : 1 h 55 min
Bit rate mode : Constant
Bit rate : 448 kb/s
Channel(s) : 6 channels
Channel layout : L R C LFE Ls Rs
Sampling rate : 48.0 kHz
Frame rate : 31.250 FPS (1536 SPF)
Compression mode : Lossy
Stream size : 371 MiB (1%)
Title : |Многолосый закадровый, Киномания|
Language : Russian
Service kind : Complete Main
Default : No
Forced : No

Audio #3
ID : 4
Format : AC-3
Format/Info : Audio Coding 3
Commercial name : Dolby Digital
Codec ID : A_AC3
Duration : 1 h 55 min
Bit rate mode : Constant
Bit rate : 192 kb/s
Channel(s) : 2 channels
Channel layout : L R
Sampling rate : 48.0 kHz
Frame rate : 31.250 FPS (1536 SPF)
Compression mode : Lossy
Stream size : 159 MiB (0%)
Title : |Дубляж, c VHS|
Language : Russian
Service kind : Complete Main
Default : No
Forced : No

Audio #4
ID : 5
Format : DTS XLL
Format/Info : Digital Theater Systems
Commercial name : DTS-HD Master Audio
Codec ID : A_DTS
Duration : 1 h 55 min
Bit rate mode : Variable
Bit rate : 3 850 kb/s
Channel(s) : 6 channels
Channel layout : C L R Ls Rs LFE
Sampling rate : 48.0 kHz
Frame rate : 93.750 FPS (512 SPF)
Bit depth : 24 bits
Compression mode : Lossless
Stream size : 3.12 GiB (5%)
Title : |Многолосый закадровый, Карусель|
Language : Russian
Default : No
Forced : No

Audio #5
ID : 6
Format : DTS XLL
Format/Info : Digital Theater Systems
Commercial name : DTS-HD Master Audio
Codec ID : A_DTS
Duration : 1 h 55 min
Bit rate mode : Variable
Bit rate : 3 845 kb/s
Channel(s) : 6 channels
Channel layout : C L R Ls Rs LFE
Sampling rate : 48.0 kHz
Frame rate : 93.750 FPS (512 SPF)
Bit depth : 24 bits
Compression mode : Lossless
Stream size : 3.12 GiB (5%)
Title : |Одноголосый закадровый, А.Гаврилов|
Language : Russian
Default : No
Forced : No

Audio #6
ID : 7
Format : DTS XLL
Format/Info : Digital Theater Systems
Commercial name : DTS-HD Master Audio
Codec ID : A_DTS
Duration : 1 h 55 min
Bit rate mode : Variable
Bit rate : 3 841 kb/s
Channel(s) : 6 channels
Channel layout : C L R Ls Rs LFE
Sampling rate : 48.0 kHz
Frame rate : 93.750 FPS (512 SPF)
Bit depth : 24 bits
Compression mode : Lossless
Stream size : 3.11 GiB (5%)
Title : |Одноголосый закадровый, В.Горчаков|
Language : Russian
Default : No
Forced : No

Audio #7
ID : 8
Format : DTS XLL
Format/Info : Digital Theater Systems
Commercial name : DTS-HD Master Audio
Codec ID : A_DTS
Duration : 1 h 55 min
Bit rate mode : Variable
Bit rate : 3 853 kb/s
Channel(s) : 6 channels
Channel layout : C L R Ls Rs LFE
Sampling rate : 48.0 kHz
Frame rate : 93.750 FPS (512 SPF)
Bit depth : 24 bits
Compression mode : Lossless
Stream size : 3.12 GiB (5%)
Title : |Одноголосый закадровый, Ю.Живов|
Language : Russian
Default : No
Forced : No

Audio #8
ID : 9
Format : DTS XLL
Format/Info : Digital Theater Systems
Commercial name : DTS-HD Master Audio
Codec ID : A_DTS
Duration : 1 h 55 min
Bit rate mode : Variable
Bit rate : 3 830 kb/s
Channel(s) : 6 channels
Channel layout : C L R Ls Rs LFE
Sampling rate : 48.0 kHz
Frame rate : 93.750 FPS (512 SPF)
Bit depth : 24 bits
Compression mode : Lossless
Stream size : 3.10 GiB (5%)
Title : Original
Language : English
Default : No
Forced : No

Text #1
ID : 10
Format : UTF-8
Codec ID : S_TEXT/UTF8
Codec ID/Info : UTF-8 Plain Text
Duration : 1 h 46 min
Bit rate : 86 b/s
Count of elements : 1638
Stream size : 67.7 KiB (0%)
Title : Full
Language : Russian
Default : No
Forced : No

Text #2
ID : 11
Format : UTF-8
Codec ID : S_TEXT/UTF8
Codec ID/Info : UTF-8 Plain Text
Duration : 1 h 46 min
Bit rate : 51 b/s
Count of elements : 1085
Stream size : 40.2 KiB (0%)
Title : Full
Language : English
Default : No
Forced : No

Menu
00:00:00.000 : en:Main Title
00:04:20.218 : en:Hold The Elevator
00:06:04.948 : en:L.A.P.D. Bomb Squad
00:08:27.757 : en:Down The Shaft
00:11:18.553 : en:A Gut Feeling
00:15:24.382 : en:Perilous Rescue
00:17:38.891 : en:He's Here!
00:23:22.484 : en:Heroes
00:26:44.436 : en:The Game Begins
00:31:02.444 : en:The Bus
00:35:06.187 : en:High Speed Pursuit With "Tune Man"
00:40:24.255 : en:Jack On Board
00:44:33.421 : en:Under The Bus
00:48:47.174 : en:Through The Streets: A Hard Right
00:53:09.853 : en:An Empty Freeway
00:55:44.883 : en:Passenger Transfer
00:58:52.487 : en:Watch Your Step
01:02:20.111 : en:Leap Of Faith
01:07:39.055 : en:Circling The Runway
01:08:55.214 : en:Jack Gets Off
01:11:52.183 : en:The Plan
01:15:17.513 : en:Howard Payne
01:15:41.203 : en:Belly Of The Beast
01:19:34.186 : en:A Costly Mistake
01:23:28.253 : en:Video Games
01:27:05.303 : en:Evacuation
01:32:57.864 : en:The Trap
01:37:06.696 : en:Going Underground
01:40:28.898 : en:On The Train
01:42:20.551 : en:Howard's Headache
01:46:06.443 : en:Full Speed Ahead
01:50:06.934 : en:End Credits




Скачать Скорость через торрент https://b.radikal.ru/b41/2104/4d/7a1d8b0faf0c.jpg Скачать, смотреть онлайн Скорость бесплантно в хорошем качестве Описание: Представьте себе девушку, у которой на заднем стекле автомобиля красуется наклейка с восклицательным знаком, чайником и странного ... 8.3 10 7
Торрент: Зарегистрирован [2021-04-27 14:28] · скачан: 40 раз
Статус: √ проверено
Размер: 64.69 GB
Как cкачать? Как скачать Скорость через торрент | UTorrent

28-11-2019 20:33  

Отключить вcю реклaмy на сайте

27-04-2021 18:09 Скорость Скачать торрент  

фильм супер



    Дорогой пользователь! Огромная просьба, поблагодарите релизера, оцените раздачу и оставьте свои комментарий, если Вы скачали Скорость через торрент бесплатно!!
    Комментировать посты могут только пользователи прошедшие не сложную регистрацию
    Показать сообщения:    


    Скорость через торрент
    Скачать бесплатно Скорость
    Скорость скачать торрент
    Скорость смотреть онлайн
    Cкачать фильм Скорость бесплатно
    Скорость скачать торрент в хорошем качестве
    Скорость смотреть онлайн бесплатно в хорошем качестве
    Вы не можете начинать темы
    Вы не можете отвечать на сообщения
    Вы не можете редактировать свои сообщения
    Вы не можете удалять свои сообщения
    Вы не можете голосовать в опросах
    Вы не можете прикреплять файлы к сообщениям
    Вы можете скачивать файлы