>

8.4

Хороший звук

6.1

MVO

6.4

Line & MVO

1

7.4

1 сезон

6.8

iTunes

7.2

1 сезон

13

6.7

1 сезон

8.3

RePack

30

Deluxe

pack

9.9

Лицензия

ВАЖНО

ИГРА 18+

pack

7.3

RePack

MK11

7.7

RePack

jed

7.8

RePack

fifa19

8.5

RePack

RDR2

RePack

NEED FOR SPEED™ PAYBACK

4 сезон

9 сезон

Бесстыжие 9 сезон

Все сериалы

все сериалы на PB.wtf

RePack

FAR CRY 5

Anonymous, доброй ночи, мы катастрофически не успеваем собрать деньги на оплату серверов, помогите нам пожалуйста 5,10,15р., для нас важна любая помощь . В качестве благодарности мы отключим Вам всю рекламу на сайте (укажите свой ник в строку Ваше имя)!

×
  
Magnet ссылка

Дьявол в деталях / The Little Things (Джон Ли Хэнкок) [2021, Триллер, детектив, драма, криминал, WEB-DLRip-AVC] [VO] [Владислав Данилов] от MediaBit pb.wtf

Смотреть онлайн Дьявол в деталях | Скачать    Ребята, помогите собрать деньги на оплату серверов!!!

01-02-2021 18:49 Дьявол в деталях Скачать торрент  


Дьявол в деталях / The Little Things
Информация о фильме:
Название: Дьявол в деталях
Оригинальное название: The Little Things
Год выхода: 2021
Жанр: Триллер, детектив, драма, криминал
Режиссер: Джон Ли Хэнкок

В ролях: Дензел Вашингтон, Рами Малек, Джаред Лето, Терри Кинни, София Васильева, Крис Бауэр, Джейсон Джеймс Рихтер, Натали Моралес, Том Хьюз, Стефани Эрб, Мишель Хайатт, Адам Харрингтон, Джорис Джарски, Керри О'Мэлли, Эбони Эн Майо, Изабель Аррайза, Джей Доунинг, Джон Харлан Ким, Томас Кроуфорд, Джефф Корбетт

Описание: Заместителя шерифа округа Керн Джо Дикона по прозвищу Дики отправляют в Лос-Анджелес – обычная командировка для сбора улик. Но там его привлекают к поискам серийного убийцы, который терроризирует город. Охоту на маньяка возглавляет Джим Бэкстер, сержант департамента шерифа Лос-Анджелеса. Его впечатляет полицейское чутье Дики, и он неофициально привлекает его к расследованию. Они всё ближе к цели, но Бэкстер не догадывается, что тем самым они воскрешают призраков прошлого Дики, раскрывая такие тайны, которые могут всколыхнуть куда более темные воды, чем его нынешнее дело.



Страна: США
Студия: Gran Via, Warner Bros
Продолжительность: 02:07:47
Перевод: Любительский (одноголосый, закадровый) - Владислав Данилов



Информация о файле:
Кодек: AVC
Формат: MKV
Качество: WEB-DLRip-AVC
Видео: MPEG-4 AVC, 1024x428, 23.976 fps, 1529 kbps
Аудио RU: AAC-HE, 2 ch, 48 kHz, 96 kbps
Субтитры: Русские (Full (FOCS), английские, испанские, французские
Навигация по главам: Нет

x264 info: frame I:1962 Avg QP:14.39 size: 70936
x264 info: frame P:37433 Avg QP:17.43 size: 18729
x264 info: frame B:144433 Avg QP:20.71 size: 4327
x264 info: consecutive B-frames: 1.7% 3.1% 5.0% 21.7% 14.7% 34.4% 7.0% 7.1% 1.9% 0.8% 0.9% 0.8% 1.0%
General
Unique ID : 113115101017409237755299299836280591061 (0x55192D0FB9622D603734EC4E2DE252D5)
Complete name : D:uTorrentРипы_от_wolf1245_MediaBitThe Little Things.2021.VO.WEB-DLRip-AVC_wolf1245_MediaBit.mkv
Format : Matroska
Format version : Version 4
File size : 1.45 GiB
Duration : 2 h 7 min
Overall bit rate : 1 627 kb/s
Movie name : The Little Things.2021.VO.WEB-DLRip-AVC_wolf1245_MediaBit
Encoded date : UTC 2021-02-01 18:29:23
Writing application : mkvmerge v53.0.0 ('Fool's Gold') 64-bit
Writing library : libebml v1.4.1 + libmatroska v1.6.2
Video
ID : 1
Format : AVC
Format/Info : Advanced Video Codec
Format profile : High@L4.1
Format settings : CABAC / 12 Ref Frames
Format settings, CABAC : Yes
Format settings, Reference frames : 12 frames
Codec ID : V_MPEG4/ISO/AVC
Duration : 2 h 7 min
Bit rate : 1 529 kb/s
Width : 1 024 pixels
Height : 428 pixels
Display aspect ratio : 2.40:1
Frame rate mode : Constant
Frame rate : 23.976 (24000/1001) FPS
Color space : YUV
Chroma subsampling : 4:2:0
Bit depth : 8 bits
Scan type : Progressive
Bits/(Pixel*Frame) : 0.146
Stream size : 1.36 GiB (94%)
Title : _wolf1245_MediaBit
Writing library : x264 core 157 r2958 57baac4
Encoding settings : cabac=1 / ref=12 / deblock=1:-3:-3 / analyse=0x3:0x133 / me=umh / subme=11 / psy=1 / psy_rd=1.05:0.05 / mixed_ref=1 / me_range=48 / chroma_me=1 / trellis=2 / 8x8dct=1 / cqm=0 / deadzone=21,11 / fast_pskip=1 / chroma_qp_offset=-3 / threads=10 / lookahead_threads=2 / sliced_threads=0 / nr=0 / decimate=1 / interlaced=0 / bluray_compat=0 / constrained_intra=0 / bframes=12 / b_pyramid=2 / b_adapt=2 / b_bias=0 / direct=3 / weightb=1 / open_gop=0 / weightp=2 / keyint=240 / keyint_min=24 / scenecut=40 / intra_refresh=0 / rc_lookahead=100 / rc=2pass / mbtree=1 / bitrate=1529 / ratetol=1.0 / qcomp=0.60 / qpmin=0 / qpmax=69 / qpstep=4 / cplxblur=20.0 / qblur=0.5 / vbv_maxrate=50000 / vbv_bufsize=62500 / nal_hrd=none / filler=0 / ip_ratio=1.40 / aq=1:0.80
Language : English
Default : Yes
Forced : No
Color range : Limited
Color primaries : BT.709
Transfer characteristics : BT.709
Matrix coefficients : BT.709
Audio
ID : 2
Format : AAC LC SBR
Format/Info : Advanced Audio Codec Low Complexity with Spectral Band Replication
Commercial name : HE-AAC
Format settings : Implicit
Codec ID : A_AAC-2
Duration : 2 h 7 min
Bit rate : 96.0 kb/s
Channel(s) : 2 channels
Channel layout : L R
Sampling rate : 48.0 kHz
Frame rate : 23.438 FPS (2048 SPF)
Compression mode : Lossy
Stream size : 87.7 MiB (6%)
Title : VO | [Владислав Данилов]
Language : Russian
Default : Yes
Forced : No
Text #1
ID : 3
Format : UTF-8
Codec ID : S_TEXT/UTF8
Codec ID/Info : UTF-8 Plain Text
Duration : 1 h 59 min
Bit rate : 75 b/s
Count of elements : 1277
Stream size : 66.4 KiB (0%)
Title : FOCS
Language : Russian
Default : No
Forced : No
Text #2
ID : 4
Format : UTF-8
Codec ID : S_TEXT/UTF8
Codec ID/Info : UTF-8 Plain Text
Duration : 1 h 59 min
Bit rate : 45 b/s
Count of elements : 1334
Stream size : 40.2 KiB (0%)
Language : English
Default : No
Forced : No
Text #3
ID : 5
Format : UTF-8
Codec ID : S_TEXT/UTF8
Codec ID/Info : UTF-8 Plain Text
Duration : 2 h 2 min
Bit rate : 51 b/s
Count of elements : 1555
Stream size : 45.9 KiB (0%)
Title : SDH
Language : English
Default : No
Forced : No
Text #4
ID : 6
Format : UTF-8
Codec ID : S_TEXT/UTF8
Codec ID/Info : UTF-8 Plain Text
Duration : 2 h 3 min
Bit rate : 44 b/s
Count of elements : 1359
Stream size : 40.3 KiB (0%)
Title : SDH
Language : Spanish
Default : No
Forced : No
Text #5
ID : 7
Format : UTF-8
Codec ID : S_TEXT/UTF8
Codec ID/Info : UTF-8 Plain Text
Duration : 2 h 7 min
Bit rate : 36 b/s
Count of elements : 1240
Stream size : 34.4 KiB (0%)
Title : SDH
Language : French
Default : No
Forced : No
Релиз от: & &
pb.wtf



Скачать
Чтобы иметь возможность скачивать с Торрент Трекера, нужно Зарегистрироваться

Как скачивать  ·  Рейтинг и ограничения

28-11-2019 20:33  

Отключить всю рекламу на сайте

28-04-2021 18:47 Дьявол в деталях Скачать торрент  

простите бред да и только...смотреть жето лето глупо.он после того как узнал что есть коронавирус стал актёром худшим и с причёской идиота. играет джаред летто как пацан 13 летний смехpb.wtf



    Дорогой пользователь! Огромная просьба, поблагодарите релизера, оцените раздачу и оставьте свои комментарий, если Вы скачали Дьявол в деталях через торрент бесплатно!
    Комментировать посты могут только пользователи прошедшие не сложную регистрацию
    Показать сообщения:    

    Дьявол в деталях через торрент
    Скачать бесплатно Дьявол в деталях
    Дьявол в деталях скачать торрент
    Дьявол в деталях смотреть онлайн
    Cкачать фильм Дьявол в деталях бесплатно
    Дьявол в деталях скачать торрент в хорошем качестве
    Дьявол в деталях смотреть онлайн бесплатно в хорошем качестве


    Вы не можете начинать темы
    Вы не можете отвечать на сообщения
    Вы не можете редактировать свои сообщения
    Вы не можете удалять свои сообщения
    Вы не можете голосовать в опросах
    Вы не можете прикреплять файлы к сообщениям
    Вы не можете скачивать файлы