Доктор Стрэндж

Лицензия

Добыча

Дубляж

Уэнсдэй

1 сезон

Тор

Дубляж

В эфире

Дубляж

Там, где раки поют

MVO

Властелин колец

1 сезон

Deluxe

pack

Рекомендуем

30

Пиратка

ВАЖНО

ВАЖНО

Ghostwire

Пиратка

jed

RePack

nioh2

RePack

RDR2

RePack

NEED FOR SPEED™ PAYBACK

RePack

скачать торрент

Кинопоиск HD

Острые козырьки 6 сезон

6 сезон

FAR CRY 6

RePack

скачать торрент

Лицензия

скачать торрент

MVO

1

1 сезон

скачать торрент

1 сезон

скачать торрент

Лицензия

  

Пальма (Александр Домогаров мл.) [2021, Семейный, приключения, WEB-DL 1080p] [iTunes]

Пальма через торрент pb.wtf

Размер: 5.56 GB | Добавлен: 1 год 6 мес. назад | Торрент скачан:158 раз
Смотреть онлайн | Скачать   

27-05-2021 14:34 Пальма Скачать торрент  

Пальма
Год выпуска: 2021
Страна: Россия, Япония
Студия: Телеканал «РОССИЯ 1», OKKO Studios, АМЕДИА, Марс Медиа Энтертейнмент
Жанр: Семейный, приключения
Продолжительность: 01:50:13
Перевод: Не требуется | iTunes
Субтитры: отсутствуют

Режиссер: Александр Домогаров мл.

rating

В ролях: Виктор Добронравов, Леонид Басов, Владимир Ильин, Валерия Федорович, Евгения Дмитриева, Игорь Хрипунов, Павел Майков, Владимир Симонов, Ян Цапник, Филипп Савинков, Дарья Лузина, Елена Анисимова, Михаил Богдасаров, Микаэл Джанибекян, Баин Бовальдинов, Илья Луцак, Александр Домогаров, Хироюки Ватанабе, Томоко Фудзита, Мицу Дан, Осаму Ямамото, Дзюн Такамацу, Дзюнко Абэ, Ёсикуни Дотин, Алина Загитова, Анастасия Шига

Описание: Овчарка по кличке Пальма вынужденно расстается с хозяином: тот улетает за границу, а верную собаку не берут на рейс и оставляют прямо на летном поле. Пальма прячется в аэропорту и каждый день встречает самолеты в надежде, что хозяин вернулся. Но время идет… 9-летний Коля — тоже новенький в аэропорту: он потерял маму и переехал к отцу-пилоту, которого почти не знает. Пальма становится для мальчика родственной душой и лучшим другом. А отцу Коли, летчику Лазареву, предстоит заслужить доверие и любовь сына, сделав нелегкий выбор между карьерой и семьей. И найти способ не разлучить друзей, когда за Пальмой однажды возвращается хозяин.

Качество: WEB-DL 1080p
Формат: MKV

Видео: MPEG-4 (AVC), 1920х1080 (16:9), 24 fps, ~ 6845 kbps, 0.138 bit/pixel
Аудио: 48 kHz, AC3 Dolby Digital, 3/2 (L,C,R,l,r) + LFE ch, ~384 kbps
скриншот  скриншот  скриншот  скриншот  

General
Unique ID : 285891938223175523234323887738036523839 (0xD714C8D2E9FAACFE1C812A0EFE0D933F)
Complete name : Palma.2020.1080p.WEB-DL.DD5.1.H.264-EniaHD.mkv
Format : Matroska
Format version : Version 4
File size : 5.56 GiB
Duration : 1 h 50 min
Overall bit rate : 7 231 kb/s
Encoded date : UTC 2021-05-20 06:03:42
Writing application : mkvmerge v56.1.0 ('My Friend') 64-bit
Writing library : libebml v1.4.2 + libmatroska v1.6.4

Video
ID : 1
Format : AVC
Format/Info : Advanced Video Codec
Format profile : [email protected]
Format settings : CABAC / 2 Ref Frames
Format settings, CABAC : Yes
Format settings, Reference frames : 2 frames
Codec ID : V_MPEG4/ISO/AVC
Duration : 1 h 50 min
Bit rate : 6 845 kb/s
Width : 1 920 pixels
Height : 1 080 pixels
Display aspect ratio : 16:9
Frame rate mode : Constant
Frame rate : 24.000 FPS
Color space : YUV
Chroma subsampling : 4:2:0
Bit depth : 8 bits
Scan type : Progressive
Bits/(Pixel*Frame) : 0.138
Stream size : 5.26 GiB (95%)
Writing library : x264 core 159 r2991 1771b55
Default : Yes
Forced : No
Color range : Limited
Color primaries : BT.709
Transfer characteristics : BT.709
Matrix coefficients : BT.709

Audio
ID : 2
Format : AC-3
Format/Info : Audio Coding 3
Commercial name : Dolby Digital
Codec ID : A_AC3
Duration : 1 h 50 min
Bit rate mode : Constant
Bit rate : 384 kb/s
Channel(s) : 6 channels
Channel layout : L R C LFE Ls Rs
Sampling rate : 48.0 kHz
Frame rate : 31.250 FPS (1536 SPF)
Compression mode : Lossy
Stream size : 302 MiB (5%)
Language : Russian
Service kind : Complete Main
Default : Yes
Forced : No

Menu
00:00:00.000 : Глава 1
00:09:54.958 : Глава 2
00:17:55.249 : Глава 3
00:26:09.374 : Глава 4
00:33:46.832 : Глава 5
00:40:45.207 : Глава 6
00:48:23.707 : Глава 7
00:57:26.373 : Глава 8
01:05:13.164 : Глава 9
01:12:34.622 : Глава 10
01:20:05.538 : Глава 11
01:26:39.079 : Глава 12
01:34:03.704 : Глава 13
01:40:41.037 : Глава 14




Скачать Пальма через торрент https://i114.fastpic.ru/big/2021/0519/8c/de32db98dcb8aced0f953e824bd58d8c.jpg Скачать, смотреть онлайн Пальма бесплантно в хорошем качестве Описание: Овчарка по кличке Пальма вынужденно расстается с хозяином: тот улетает за границу, а верную собаку не берут на рейс и оставляют ... 10 10 7
Торрент: Зарегистрирован [2021-05-27 14:34] · скачан: 158 раз
Статус: √ проверено
Размер: 5.56 GB
Как cкачать? Как скачать Пальма через торрент | UTorrent

% Раздел Тема Автор DL S | L
Детские отечественные фильмы [ 10.9 GB ] Пальма | Лицензия | 1080p bober100 Скачать
2 | 0
Детские отечественные фильмы [ 6.28 GB ] Пальма | Лицензия | 720p bober100 Скачать
1 | 0
Детские отечественные фильмы [ 1.46 GB ] Пальма | Лицензия | BDRip bober100 Скачать
2 | 0
Детские отечественные фильмы [ 2.05 GB ] Пальма | | DLRip-AVC bober100 Скачать
1 | 0
Детские отечественные фильмы [ 1.46 GB ] Пальма | iTunes | DLRip bober100 Скачать
1 | 0

28-11-2019 20:33  


Отключить вcю реклaмy на сайте, в т.ч. и в плеере онлайн просмотра!

    Дорогой пользователь! Огромная просьба, поблагодарите релизера, оцените раздачу и оставьте свои комментарий, если Вы скачали Пальма через торрент бесплатно!!
    Комментировать посты могут только пользователи прошедшие не сложную регистрацию
    Показать сообщения:    


    Пальма через торрент
    Скачать бесплатно Пальма
    Пальма скачать торрент
    Пальма смотреть онлайн
    Cкачать фильм Пальма бесплатно
    Пальма скачать торрент в хорошем качестве
    Пальма смотреть онлайн бесплатно в хорошем качестве
    Вы не можете начинать темы
    Вы не можете отвечать на сообщения
    Вы не можете редактировать свои сообщения
    Вы не можете удалять свои сообщения
    Вы не можете голосовать в опросах
    Вы не можете прикреплять файлы к сообщениям
    Вы можете скачивать файлы
    Пальма [2021, Семейный, приключения, WEB-DL 1080p] [iTunes] смотреть онлайн, скачать торрент picoco.icu