Доктор Стрэндж

Лицензия

Добыча

Дубляж

Уэнсдэй

1 сезон

Тор

Дубляж

В эфире

Дубляж

Там, где раки поют

MVO

Властелин колец

1 сезон

Deluxe

pack

Рекомендуем

30

Пиратка

ВАЖНО

ВАЖНО

Ghostwire

Пиратка

jed

RePack

nioh2

RePack

RDR2

RePack

NEED FOR SPEED™ PAYBACK

RePack

скачать торрент

Кинопоиск HD

Острые козырьки 6 сезон

6 сезон

FAR CRY 6

RePack

скачать торрент

Лицензия

скачать торрент

MVO

1

1 сезон

скачать торрент

1 сезон

скачать торрент

Лицензия

  

Родные (Илья Аксенов) [2021, Комедия, драма, WEB-DL 720p] [iTunes]

Родные через торрент pb.wtf

Размер: 2.46 GB | Добавлен: 1 год 5 мес. назад | Торрент скачан:145 раз
Смотреть онлайн | Скачать   

10-04-2021 03:31 Родные Скачать торрент  

Родные
Год выпуска: 2021
Страна: Россия
Студия: Hype Film
Жанр: Комедия, драма
Продолжительность: 01:37:49
Перевод: Не требуется | iTunes
Субтитры: отсутствуют

Режиссер: Илья Аксенов

rating

В ролях: Сергей Бурунов, Ирина Пегова, Семен Трескунов, Монеточка, Катерина Беккер, Анна Уколова, Никита Павленко, Сергей Шакуров, Павел Ворожцов, Дмитрий Русаков

Описание: Однажды утром отец семейства решает исполнить мечту всей жизни: отправиться с родными на Грушинский фестиваль и выступить там со своей песней. Семья вынуждена смириться с желанием отца-самодура и пуститься в автопутешествие через всю Россию.

В пути их ждут приключения, различные испытания, проверка отношений на прочность и важная встреча, которую отец ждал двадцать лет.

Качество: WEB-DL 720p
Формат: MKV

Видео: MPEG-4 AVC, 3153 Кбит/с, 1280x528, 24 fps
Аудио: AC3, 48 kHz, 6 ch, ~384.00 kbps avg | русский | iTunes
скриншот  скриншот  скриншот  скриншот  

Общее
Уникальный идентификатор : 204925357685038747989767381249450503520 (0x9A2B3032A896A61D90D8376874FEED60)
Полное имя : C:\Rodniye.2021.WEB.DL.720p.ExKinoRay.mkv
Формат : Matroska
Версия формата : Version 2
Размер файла : 2,46 Гбайт
Продолжительность : 1 ч. 37 м.
Режим общего битрейта : Постоянный
Общий поток : 3608 Кбит/сек
Название фильма : Rodniye 2021 from ExKinoRay
Дата кодирования : UTC 2021-04-18 01:12:06
Программа кодирования : mkvmerge v5.8.0 ('No Sleep / Pillow') built on Sep 2 2012 15:37:04
Библиотека кодирования : libebml v1.2.3 + libmatroska v1.3.0

Видео
Идентификатор : 1
Формат : AVC
Формат/Информация : Advanced Video Codec
Профиль формата : [email protected]
Параметр CABAC формата : Да
Параметр RefFrames формата : 4 кадра
Параметр GOP формата : M=2, N=33
Идентификатор кодека : V_MPEG4/ISO/AVC
Продолжительность : 1 ч. 37 м.
Вид битрейта : Постоянный
Битрейт : 3153 Кбит/сек
Номинальный битрейт : 3543 Кбит/сек
Ширина : 1280 пикселей
Высота : 528 пикселей
Соотношение сторон : 2,40:1
Режим частоты кадров : Постоянный
Частота кадров : 24,000 кадра/сек
Стандарт вещания : NTSC
Цветовое пространство : YUV
Субдискретизация насыщенности : 4:2:0
Битовая глубина : 8 бит
Тип развёртки : Прогрессивная
Бит/(Пиксели*Кадры) : 0.194
Размер потока : 2,15 Гбайт (87%)
Default : Да
Forced : Нет
Цветовой диапазон : Limited
Основные цвета : BT.709
Характеристики трансфера : BT.709
Коэффициенты матрицы : BT.709

Аудио
Идентификатор : 2
Формат : AC-3
Формат/Информация : Audio Coding 3
Расширение режима : CM (complete main)
Параметр Endianness формата : Big
Идентификатор кодека : A_AC3
Продолжительность : 1 ч. 37 м.
Вид битрейта : Постоянный
Битрейт : 384 Кбит/сек
Каналы : 6 каналов
Расположение каналов : Front: L C R, Side: L R, LFE
Частота : 48,0 КГц
Частота кадров : 31,250 кадров/сек (1536 spf)
Метод сжатия : С потерями
Размер потока : 269 Мбайт (11%)
Заголовок : (iTunes)
Язык : Russian
Default : Да
Forced : Нет

Меню
00:00:00.000 : en:Глава 1
00:08:01.916 : en:Глава 2
00:16:03.791 : en:Глава 3
00:24:08.707 : en:Глава 4
00:32:14.957 : en:Глава 5
00:40:31.373 : en:Глава 6
00:49:21.623 : en:Глава 7
00:58:23.331 : en:Глава 8
01:07:22.289 : en:Глава 9
01:16:09.580 : en:Глава 10
01:24:20.080 : en:Глава 11




Скачать Родные через торрент https://i114.fastpic.ru/big/2021/0410/5f/c9580327f8d57c8b8d130a0894245b5f.jpg Скачать, смотреть онлайн Родные бесплантно в хорошем качестве Описание: Однажды утром отец семейства решает исполнить мечту всей жизни: отправиться с родными на Грушинский фестиваль и выступить там со ... 9 10 18
Торрент: Зарегистрирован [2021-06-16 14:02] · скачан: 145 раз
Статус: √ проверено
Размер: 2.46 GB
Как cкачать? Как скачать Родные через торрент | UTorrent

% Раздел Тема Автор DL S | L
Наши новые фильмы 2020 - 2022 [ 1.44 GB ] Родные | iTunes | DLRip-AVC sokol_ok Скачать
2 | 0
Наши фильмы (HD, WEB-DL 720p, 1080p) [ 3.43 GB ] Родные | iTunes | 1080p bober100 Скачать
2 | 0
Наши новые фильмы 2020 - 2022 [ 1.46 GB ] Родные | iTunes | DLRip bober100 Скачать
1 | 0
Наши новые фильмы 2020 - 2022 [ 721 MB ] Родные | iTunes | DLRip, coc900 Скачать
2 | 0



Последний раз редактировалось: bober100 (2021-06-16 14:12), всего редактировалось 2 раз(а)

28-11-2019 20:33  


Отключить вcю реклaмy на сайте, в т.ч. и в плеере онлайн просмотра!

10-04-2021 20:37 Родные Скачать торрент  

хороший фильм



10-04-2021 22:00 Родные Скачать торрент  

ох и херня...



11-04-2021 16:36 Родные Скачать торрент  

Да, если в понимании режисера, - это комедия, то, что тогда "драма"? Но так-то, фильм неплохой, но это никак НЕ комедия!



19-06-2021 18:56 Родные Скачать торрент  

фильм стрёмный



    Дорогой пользователь! Огромная просьба, поблагодарите релизера, оцените раздачу и оставьте свои комментарий, если Вы скачали Родные через торрент бесплатно!!
    Комментировать посты могут только пользователи прошедшие не сложную регистрацию
    Показать сообщения:    


    Родные через торрент
    Скачать бесплатно Родные
    Родные скачать торрент
    Родные смотреть онлайн
    Cкачать фильм Родные бесплатно
    Родные скачать торрент в хорошем качестве
    Родные смотреть онлайн бесплатно в хорошем качестве
    Вы не можете начинать темы
    Вы не можете отвечать на сообщения
    Вы не можете редактировать свои сообщения
    Вы не можете удалять свои сообщения
    Вы не можете голосовать в опросах
    Вы не можете прикреплять файлы к сообщениям
    Вы можете скачивать файлы
    Родные [2021, Комедия, драма, WEB-DL 720p] [iTunes] смотреть онлайн, скачать торрент picoco.icu