Всегда рабочее зеркало без VPN и Proxy просто перед .vidak.icu напиши любое слово или цифру, Пример http://i6r1.vidak.icu

MVO

2 сезон

2 сезон

1

1 сезон

iTunes

2 сезон

13

1 сезон

Распродажа

pack

Рекомендуем

Пиратка

30

ВАЖНО

RePack

MK11

RePack

jed

RePack

fifa19

RePack

RDR2

RePack

NEED FOR SPEED™ PAYBACK

Кинопоиск HD

6 сезон

 Острые козырьки 6 сезон

Все сериалы

все сериалы на PB.wtf

RePack

FAR CRY 5

Anonymous, нам критически не хватает 5601 руб. на оплату серверов и переферии за Апрель, помоги нам пожалуйста, вся надежда только на тебя. В благодарность мы отключим тебе всю рекламу на сайте!

×
  
Magnet ссылка

Суррогаты / Surrogates (Джонатан Мостоу) [2009, фантастика, боевик, триллер, BDRip (HEVC)1080p] [AVO] (А.Гаврилов) pb.wtf

Суррогаты через торрент pb.wtf

Размер: 2.53 GB | Добавлен: 10 мес. назад | Торрент скачан:9 раз
Смотреть онлайн Суррогаты | Скачать    Ребята, помогите собрать деньги на оплату серверов!!!

14-12-2020 15:03 Суррогаты Скачать торрент  

Суррогаты / Surrogates
Год выпуска: 2009
Страна: США
Жанр: фантастика, боевик, триллер
Продолжительность: 01:28:36
Перевод: Авторский (одноголосый, закадровый) Андрей Гаврилов

Режиссер: Джонатан Мостоу / Jonathan Mostow

В ролях: Брюс Уиллис, Рада Митчел, Розамунд Пайк, Борис Коджо, Джеймс Джинти, Джеймс Кромуэлл, Винг Рэймс, Джек Ноузуорти, Девин Рэтрей, Майкл Кудиц.

Описание: Действие разворачивается в будущем, в 2057 году, — когда люди практически перестанут общаться между собой и полностью возложат эту функцию на плечи роботов-заменителей. Они сильнее, моложе, привлекательнее своих обладателей и даже могут быть другого пола. Но находится террорист, начинающий уничтожать идеальных андроидов. Полицейскому Тому Гриру предстоит узнать, какие причины движут злоумышленником, лишающим жизни людей и их марионеток, технически и физически совершенных.

rating

Качество видео: BDRip (HEVC) 1080p
Формат: MKV
Видео кодек: x.265
Аудио кодек: AC3
Видео: HEVC/H.265, 1920x800, 23,976 fps, ~3 552 Kbps, 8 bit
Аудио: 48 kHz, AC3, 6 ch, ~448 kbps
General
Unique ID : 218166945087672438530377274860701547181 (0xA4216CDCA89BA3C5A7A42843D194FAAD)
Complete name : G:\ФИЛЬМЫ\Surrogates(2009) BDRip (HEVC)1080p.AVO (Gavrilov).mkv
Format : Matroska
Format version : Version 4
File size : 2.53 GiB
Duration : 1 h 28 min
Overall bit rate : 4 082 kb/s
Movie name : Surrogates(2009) BDRip (HEVC)1080p.AVO (Gavrilov)
Encoded date : UTC 2020-12-14 14:46:20 / UTC 2018-12-14T20:50:00Z
Writing application : mkvmerge v6.1.0 ('Old Devil') built on Mar 2 2013 14:32:37
Writing library : libebml v1.3.0 + libmatroska v1.4.0 / Lavf57.7.2

Video
ID : 1
Format : HEVC
Format/Info : High Efficiency Video Coding
Format profile : Main@L4@Main
Codec ID : V_MPEGH/ISO/HEVC
Duration : 1 h 28 min
Bit rate : 3 552 kb/s
Width : 1 920 pixels
Height : 800 pixels
Display aspect ratio : 2.40:1
Frame rate mode : Constant
Frame rate : 23.976 (24000/1001) FPS
Color space : YUV
Chroma subsampling : 4:2:0
Bit depth : 8 bits
Bits/(Pixel*Frame) : 0.096
Stream size : 2.20 GiB (87%)
Title : Surrogates(2009) BDRip (HEVC)1080p.AVO (Gavrilov)
Writing library : x265 2.6:[Windows][GCC 7.3.0][64 bit] 8bit+10bit+12bit
Encoding settings : cpuid=1105919 / frame-threads=2 / numa-pools=6 / wpp / no-pmode / no-pme / no-psnr / no-ssim / log-level=2 / input-csp=1 / input-res=1920x800 / interlace=0 / total-frames=0 / level-idc=0 / high-tier=1 / uhd-bd=0 / ref=2 / no-allow-non-conformance / no-repeat-headers / annexb / no-aud / no-hrd / info / hash=0 / no-temporal-layers / open-gop / min-keyint=24 / keyint=240 / bframes=4 / b-adapt=0 / b-pyramid / bframe-bias=0 / rc-lookahead=15 / lookahead-slices=5 / scenecut=40 / no-intra-refresh / ctu=64 / min-cu-size=8 / no-rect / no-amp / max-tu-size=32 / tu-inter-depth=1 / tu-intra-depth=1 / limit-tu=0 / rdoq-level=0 / dynamic-rd=0.00 / no-ssim-rd / signhide / no-tskip / nr-intra=0 / nr-inter=0 / no-constrained-intra / strong-intra-smoothing / max-merge=2 / limit-refs=3 / no-limit-modes / me=1 / subme=1 / merange=57 / temporal-mvp / weightp / no-weightb / no-analyze-src-pics / deblock=0:0 / sao / no-sao-non-deblock / rd=2 / early-skip / rskip / fast-intra / no-tskip-fast / no-cu-lossless / no-b-intra / no-splitrd-skip / rdpenalty=0 / psy-rd=2.00 / psy-rdoq=0.00 / no-rd-refine / analysis-reuse-mode=0 / no-lossless / cbqpoffs=0 / crqpoffs=0 / rc=crf / crf=20.0 / qcomp=0.60 / qpstep=4 / stats-write=0 / stats-read=0 / ipratio=1.40 / pbratio=1.30 / aq-mode=1 / aq-strength=1.00 / cutree / zone-count=0 / no-strict-cbr / qg-size=32 / no-rc-grain / qpmax=69 / qpmin=0 / no-const-vbv / sar=1 / overscan=0 / videoformat=5 / range=0 / colorprim=1 / transfer=1 / colormatrix=1 / chromaloc=0 / display-window=0 / max-cll=0,0 / min-luma=0 / max-luma=255 / log2-max-poc-lsb=8 / vui-timing-info / vui-hrd-info / slices=1 / no-opt-qp-pps / no-opt-ref-list-length-pps / no-multi-pass-opt-rps / scenecut-bias=0.05 / no-opt-cu-delta-qp / no-aq-motion / no-hdr / no-hdr-opt / no-dhdr10-opt / analysis-reuse-level=5 / scale-factor=0 / refine-intra=0 / refine-inter=0 / refine-mv=0 / no-limit-sao / ctu-info=0 / no-lowpass-dct / refine-mv-type=0 / copy-pic=1
Default : Yes
Forced : No
Color range : Limited
Color primaries : BT.709
Transfer characteristics : BT.709
Matrix coefficients : BT.709
Duration_Source : General_Duration

Audio
ID : 2
Format : AC-3
Format/Info : Audio Coding 3
Commercial name : Dolby Digital
Codec ID : A_AC3
Duration : 1 h 28 min
Bit rate mode : Constant
Bit rate : 448 kb/s
Channel(s) : 6 channels
Channel layout : L R C LFE Ls Rs
Sampling rate : 48.0 kHz
Frame rate : 31.250 FPS (1536 SPF)
Compression mode : Lossy
Delay relative to video : -5 ms
Stream size : 284 MiB (11%)
Title : Gavrilov
Language : Russian
Service kind : Complete Main
Default : Yes
Forced : No
Duration_Source : General_Duration

Menu
00:00:00.000 : :1. Surrogate origins
00:03:45.392 : :2. A night at the opera
00:08:34.139 : :3. Dark past
00:14:45.885 : :4. Homicide
00:20:36.819 : :5. Missing optics
00:24:47.903 : :6. Virtual war zone
00:28:58.779 : :7. In pursuit
00:35:30.629 : :8. Lucky to be alive
00:40:10.450 : :9. Humans only
00:46:10.852 : :10. Meeting the prophet
00:49:48.027 : :11. Losing touch
00:54:08.287 : :12. Remote operator
01:00:37.801 : :13. The prophecy
01:08:27.979 : :14. Living with regrets
01:11:43.007 : :15. Transmit complete
01:19:42.862 : :16. A new beginning
01:23:59.910 : :17. End credits
скриншот   скриншот   скриншот   скриншот  
pb.wtf



Скачать Суррогаты через торрент https://i111.fastpic.ru/big/2019/1207/bc/47d5bd8dc77f89900bfca6ca1a190dbc.jpg Скачать, смотреть онлайн Суррогаты бесплантно в хорошем качестве Описание: Действие разворачивается в будущем, в 2057 году, — когда люди практически перестанут общаться между собой и полностью возложат ... 10 10 3
Торрент: Зарегистрирован [2021-07-04 04:18] · скачан: 9 раз
Статус: √ проверено
Размер: 2.53 GB
Как cкачать? Как скачать Суррогаты через торрент | UTorrent

% Раздел Тема Автор DL S | L
Фильмы (WEB-DL 720p, 1080p) [ 8.19 GB ] Суррогаты / Surrogates [2009 WEB-DL 1080p] [Open Matte] + [AVO] killermax2013 Скачать
1 | 0
Фильмы (Blu-ray, BD-Remux, HDDVD) [ 28.22 GB ] Суррогаты / Surrogates [2009 Blu-ray 1080p] DUB bober100 Скачать
1 | 0
Фильмы [HD 720p, 1080p] (Хороший звук DUB, MVO) [ 8.23 GB ] Суррогаты / Surrogates [2009 BDRip 1080p ] от R.G. HD-Films Seedtank Скачать
1 | 0
Фильмы 2009 [ 1.36 GB ] Суррогаты / Surrogates [2009 HDRip] IceDevil71 Скачать
1 | 0
Фильмы [HD 720p, 1080p] (Хороший звук DUB, MVO) [ 4.36 GB ] Суррогаты / Surrogates [2009 BDRip ] smaster Скачать
1 | 0
Фильмы (Blu-ray, BD-Remux, HDDVD) [ 18.51 GB ] Суррогаты / Surrogates [1080p] [2009 BD Remux] NarutoSasuke Скачать
1 | 0
Комиксы [ 14 MB ] The Surrogates / Суррогаты #1 [Rus 2005] IceDevil71 Скачать
1 | 0

28-11-2019 20:33  

Отключить всю рекламу на сайте

04-07-2021 10:51 Суррогаты Скачать торрент  

Хороший фильмpb.wtf



    Дорогой пользователь! Огромная просьба, поблагодарите релизера, оцените раздачу и оставьте свои комментарий, если Вы скачали Суррогаты через торрент бесплатно!
    Комментировать посты могут только пользователи прошедшие не сложную регистрацию
    Показать сообщения:    

    Суррогаты через торрент
    Скачать бесплатно Суррогаты
    Суррогаты скачать торрент
    Суррогаты смотреть онлайн
    Cкачать фильм Суррогаты бесплатно
    Суррогаты скачать торрент в хорошем качестве
    Суррогаты смотреть онлайн бесплатно в хорошем качестве


    Вы не можете начинать темы
    Вы не можете отвечать на сообщения
    Вы не можете редактировать свои сообщения
    Вы не можете удалять свои сообщения
    Вы не можете голосовать в опросах
    Вы не можете прикреплять файлы к сообщениям
    Вы можете скачивать файлы