Всегда рабочее зеркало без VPN и Proxy просто перед .vidak.icu напиши любое слово или цифру, Пример http://jgrz.vidak.icu

MVO

MVO

1 сезон

1

1 сезон

iTunes

1 сезон

13

1 сезон

Deluxe

pack

Рекомендуем

Repack

30

ВАЖНО

RePack

MK11

RePack

jed

RePack

fifa19

RePack

RDR2

RePack

NEED FOR SPEED™ PAYBACK

Кинопоиск HD

6 сезон

 Острые козырьки 6 сезон

Все сериалы

все сериалы на PB.wtf

RePack

FAR CRY 5
  
Magnet ссылка

Как стать тираном / How to Become a Tyrant / Сезон: 1 / Серии: 1-6 из 6 (Питер Динклейдж) [2021, криминал, драма, WEB-DL 1080p] [MVO] (Невафильм) pb.wtf

Как стать тираном через торрент pb.wtf

Раздают: 1 [ 0 KB/s ]
Размер: 8.11 GB | Добавлен: 5 мес. 9 д. назад | Торрент скачан:54 раза
Смотреть онлайн Как стать тираном | Скачать    Ребята, помогите собрать деньги на оплату серверов!!!

26-07-2021 12:43 Как стать тираном Скачать торрент  

Как стать тираном / How to Become a Tyrant

Год выпуска: 2021
Страна: США
Жанр: биография, документальный, история, военный, политика
Продолжительность: 6 x ~00:30:00
Перевод: Профессиональный (многоголосый закадровый) Невафильм
Режиссер и продюсер: Питер Динклейдж / Peter Dinklage

В ролях: Питер Динклейдж, Брюс Буэно де Мескита, Уоллер Ньюэлл, Рут Бен-Гиат, Фатали Могхаддам, Аша Рангаппа, Эндрю Салливан
Описание: Тираны подтверждают своим примером: чтобы держать бразды правления в железном кулаке, амбициозный лидер должен знать, как обрести абсолютную Влacть.

rating

Тип релиза: WEB-DL 1080p
Контейнер: MKV
Видео: 1920x1080 at 23.976 fps, MPEG-4 AVC, ~5000 kbps avg
Аудио 1: 48 kHz, E-AC3, 3/2 (L,C,R,l,r) + LFE ch, ~640 kbps avg | Russian
Аудио 2: 48 kHz, E-AC3, 3/2 (L,C,R,l,r) + LFE ch, ~640 kbps avg | English
Субтитры: русские (Forced, Full), английские (Forced, SDH), украинские
Формат субтитров: softsub (SRT)
Реклама: Нет
General
Complete name : How.to.Become.a.Tyrant.S01E01.WEB-DL.1080p-RuTracker.mkv
Format : Matroska
Format version : Version 4
File size : 1.48 GiB
Duration : 30 min 34 s
Overall bit rate mode : Variable
Overall bit rate : 6 937 kb/s
Encoded date : UTC 2021-07-11 10:42:07
Writing application : mkvmerge v58.0.0 ('Supper's Ready') 64-bit
Writing library : libebml v1.4.2 + libmatroska v1.6.4

Video
ID : 1
Format : AVC
Format/Info : Advanced Video Codec
Format profile : [email protected]
Format settings : CABAC / 3 Ref Frames
Format settings, CABAC : Yes
Format settings, Reference : 3 frames
Codec ID : V_MPEG4/ISO/AVC
Duration : 30 min 34 s
Bit rate mode : Variable
Bit rate : 5 586 kb/s
Maximum bit rate : 11.2 Mb/s
Width : 1 920 pixels
Height : 1 080 pixels
Display aspect ratio : 16:9
Frame rate mode : Constant
Frame rate : 23.976 (24000/1001) FPS
Color space : YUV
Chroma subsampling : 4:2:0
Bit depth : 8 bits
Scan type : Progressive
Bits/(Pixel*Frame) : 0.112
Stream size : 1.21 GiB (82%)
Writing library : x264 core 148 r2722 1b0121b
Encoding settings : cabac=1 / ref=3 / deblock=1:0:0 / analyse=0x1:0x111 / me=umh / subme=10 / psy=1 / psy_rd=1.00:0.00 / mixed_ref=1 / me_range=24 / chroma_me=1 / trellis=2 / 8x8dct=0 / cqm=0 / deadzone=21,11 / fast_pskip=1 / chroma_qp_offset=-2 / threads=8 / lookahead_threads=1 / sliced_threads=0 / nr=0 / decimate=1 / interlaced=0 / bluray_compat=0 / stitchable=1 / constrained_intra=0 / bframes=2 / b_pyramid=0 / b_adapt=2 / b_bias=0 / direct=3 / weightb=1 / open_gop=0 / weightp=2 / keyint=250 / keyint_min=23 / scenecut=0 / intra_refresh=0 / rc_lookahead=48 / rc=2pass / mbtree=1 / bitrate=5586 / ratetol=1.0 / qcomp=0.50 / qpmin=6 / qpmax=51 / qpstep=4 / cplxblur=20.0 / qblur=0.5 / vbv_maxrate=11250 / vbv_bufsize=15000 / nal_hrd=vbr / filler=0 / ip_ratio=1.40 / aq=1:1.00
Default : Yes
Forced : No

Audio #1
ID : 2
Format : E-AC-3
Format/Info : Enhanced AC-3
Commercial name : Dolby Digital Plus
Codec ID : A_EAC3
Duration : 30 min 34 s
Bit rate mode : Constant
Bit rate : 640 kb/s
Channel(s) : 6 channels
Channel layout : L R C LFE Ls Rs
Sampling rate : 48.0 kHz
Frame rate : 31.250 FPS (1536 SPF)
Compression mode : Lossy
Stream size : 140 MiB (9%)
Title : Russian
Language : Russian
Service kind : Complete Main
Default : Yes
Forced : No

Audio #2
ID : 3
Format : E-AC-3
Format/Info : Enhanced AC-3
Commercial name : Dolby Digital Plus
Codec ID : A_EAC3
Duration : 30 min 34 s
Bit rate mode : Constant
Bit rate : 640 kb/s
Channel(s) : 6 channels
Channel layout : L R C LFE Ls Rs
Sampling rate : 48.0 kHz
Frame rate : 31.250 FPS (1536 SPF)
Compression mode : Lossy
Stream size : 140 MiB (9%)
Title : English
Language : English
Service kind : Complete Main
Default : No
Forced : No

Text #1
ID : 4
Format : UTF-8
Codec ID : S_TEXT/UTF8
Codec ID/Info : UTF-8 Plain Text
Duration : 29 min 30 s
Bit rate : 15 b/s
Count of elements : 66
Stream size : 3.39 KiB (0%)
Title : Forced
Language : Russian
Default : Yes
Forced : No

Text #2
ID : 5
Format : UTF-8
Codec ID : S_TEXT/UTF8
Codec ID/Info : UTF-8 Plain Text
Duration : 29 min 30 s
Bit rate : 147 b/s
Count of elements : 476
Stream size : 32.0 KiB (0%)
Title : Russian
Language : Russian
Default : No
Forced : No

Text #3
ID : 6
Format : UTF-8
Codec ID : S_TEXT/UTF8
Codec ID/Info : UTF-8 Plain Text
Duration : 29 min 30 s
Bit rate : 153 b/s
Count of elements : 485
Stream size : 33.3 KiB (0%)
Title : Ukrainian
Language : Ukrainian
Default : No
Forced : No

Text #4
ID : 7
Format : UTF-8
Codec ID : S_TEXT/UTF8
Codec ID/Info : UTF-8 Plain Text
Duration : 6 min 33 s
Bit rate : 4 b/s
Count of elements : 4
Stream size : 224 Bytes (0%)
Title : Forced
Language : English
Default : No
Forced : No

Text #5
ID : 8
Format : UTF-8
Codec ID : S_TEXT/UTF8
Codec ID/Info : UTF-8 Plain Text
Duration : 28 min 53 s
Bit rate : 100 b/s
Count of elements : 509
Stream size : 21.3 KiB (0%)
Title : SDH
Language : English
Default : No
Forced : No
скриншот  скриншот  скриншот  
pb.wtf



Скачать Как стать тираном через торрент https://i1.imageban.ru/out/2021/07/26/9c1c72168d29f0e28a36b91b0e0fa40f.jpg Скачать, смотреть онлайн Как стать тираном бесплантно в хорошем качестве Описание: Тираны подтверждают своим примером: чтобы держать бразды правления в железном кулаке, амбициозный лидер должен знать, как обрести ... 9.7 10 3
Торрент: Зарегистрирован [2022-03-02 19:48] · скачан: 54 раз
Статус: √ проверено
Размер: 8.11 GB
Как cкачать? Как скачать Как стать тираном через торрент | UTorrent

28-11-2019 20:33  

Отключить вcю реклaмy на сайте

    Дорогой пользователь! Огромная просьба, поблагодарите релизера, оцените раздачу и оставьте свои комментарий, если Вы скачали Как стать тираном через торрент бесплатно!
    Комментировать посты могут только пользователи прошедшие не сложную регистрацию
    Показать сообщения:    

    Как стать тираном через торрент
    Скачать бесплатно Как стать тираном
    Как стать тираном скачать торрент
    Как стать тираном смотреть онлайн
    Cкачать фильм Как стать тираном бесплатно
    Как стать тираном скачать торрент в хорошем качестве
    Как стать тираном смотреть онлайн бесплатно в хорошем качестве


    Вы не можете начинать темы
    Вы не можете отвечать на сообщения
    Вы не можете редактировать свои сообщения
    Вы не можете удалять свои сообщения
    Вы не можете голосовать в опросах
    Вы не можете прикреплять файлы к сообщениям
    Вы можете скачивать файлы