Доктор Стрэндж

Лицензия

Добыча

Дубляж

Дом дракона

1 сезон

Тор

Дубляж

В эфире

Дубляж

Там, где раки поют

MVO

Властелин колец

1 сезон

Ultimate

pack

Рекомендуем

30

Пиратка

ВАЖНО

ВАЖНО

Ghostwire

Пиратка

jed

RePack

nioh2

RePack

RDR2

RePack

NEED FOR SPEED™ PAYBACK

RePack

скачать торрент

Кинопоиск HD

Острые козырьки 6 сезон

6 сезон

FAR CRY 6

RePack

скачать торрент

Лицензия

скачать торрент

MVO

1

1 сезон

скачать торрент

1 сезон

скачать торрент

Лицензия

  

Маленький воин (Илья Ермолов) [2021, Семейный, комедия, WEB-DL 1080p]

Маленький воин через торрент pb.wtf

Размер: 3.69 GB | Добавлен: 1 год 3 мес. назад | Торрент скачан:75 раз
Смотреть онлайн | Скачать   

30-07-2021 06:08 Маленький воин Скачать торрент  

Маленький воин
Год выпуска: 2021
Страна: Россия
Студия: Леополис
Жанр: Семейный, комедия
Продолжительность: 01:24:27
Перевод: Не требуется
Субтитры: отсутствуют

Режиссер: Илья Ермолов

rating

В ролях: Илья Сигалов, Маша Лобанова, Николай Шрайбер, Артем Быстров, Камиль Ларин, Анна Слю, Виктор Трубачёв, Максим Лагашкин, Гэн Сэто, Игнат Акрачков

Описание: У Вити Касаткина необычное увлечение – он занимается японской борьбой сумо. Любовь к сумо привил ему отец, который ушел из семьи 8 лет назад и уехал в Японию. Много лет мальчик живет одной мечтой - попасть на юношеский турнир в Японии, в надежде, что отец увидит его, поймет, что был не прав, и вернется к ним.

Качество: WEB-DL 1080p
Формат: MKV

Видео: MPEG-4 (AVC), 1920х1080 (16:9), 25 fps, ~ 6144 kbps, 0.119 bit/pixel
Аудио: AAC, 48 kHz, 2 ch, 128 Kbps
скриншот  скриншот  скриншот  скриншот  скриншот  

General
Unique ID : 103222542744059902530506478464773802946 (0x4DA7F04821F88D66AC237A6FC3024BC2)
Complete name : Malenkiy.voin.2021.1080p.KION.WEB-DL.AAC2.0.H.264-EniaHD.mkv
Format : Matroska
Format version : Version 4
File size : 3.69 GiB
Duration : 1 h 24 min
Overall bit rate : 6 254 kb/s
Writing application : mkvmerge v59.0.0 ('Shining Star') 64-bit
Writing library : libebml v1.4.2 + libmatroska v1.6.4

Video
ID : 1
Format : AVC
Format/Info : Advanced Video Codec
Format profile : [email protected]
Format settings : 2 Ref Frames
Format settings, CABAC : No
Format settings, Reference frames : 2 frames
Format settings, GOP : M=1, N=25
Codec ID : V_MPEG4/ISO/AVC
Duration : 1 h 24 min
Bit rate mode : Constant
Bit rate : 6 144 kb/s
Width : 1 920 pixels
Height : 1 080 pixels
Display aspect ratio : 16:9
Frame rate mode : Constant
Frame rate : 25.000 FPS
Color space : YUV
Chroma subsampling : 4:2:0
Bit depth : 8 bits
Scan type : Progressive
Bits/(Pixel*Frame) : 0.119
Stream size : 3.61 GiB (98%)
Default : Yes
Forced : No

Audio
ID : 2
Format : AAC LC
Format/Info : Advanced Audio Codec Low Complexity
Codec ID : A_AAC-2
Duration : 1 h 24 min
Bit rate : 128 kb/s
Channel(s) : 2 channels
Channel layout : L R
Sampling rate : 48.0 kHz
Frame rate : 46.875 FPS (1024 SPF)
Compression mode : Lossy
Stream size : 77.3 MiB (2%)
Language : Russian
Default : Yes
Forced : No




Скачать Маленький воин через торрент https://i115.fastpic.org/big/2021/0730/dc/747f8113488fbff30f4396d573439ddc.jpg Скачать, смотреть онлайн Маленький воин бесплантно в хорошем качестве Описание: У Вити Касаткина необычное увлечение – он занимается японской борьбой сумо. Любовь к сумо привил ему отец, который ушел из семьи ... 8.9 10 8
Торрент: Зарегистрирован [2021-07-30 06:08] · скачан: 75 раз
Статус: T временная
Размер: 3.69 GB
Как cкачать? Как скачать Маленький воин через торрент | UTorrent

% Раздел Тема Автор DL S | L
T Детские отечественные фильмы [ 1.37 GB ] Маленький воин | | DLRip bober100 Скачать
1 | 0

28-11-2019 20:33  


Отключить вcю реклaмy на сайте, в т.ч. и в плеере онлайн просмотра!

30-07-2021 18:12 Маленький воин Скачать торрент  

Отстойный фильм



    Дорогой пользователь! Огромная просьба, поблагодарите релизера, оцените раздачу и оставьте свои комментарий, если Вы скачали Маленький воин через торрент бесплатно!!
    Комментировать посты могут только пользователи прошедшие не сложную регистрацию
    Показать сообщения:    


    Маленький воин через торрент
    Скачать бесплатно Маленький воин
    Маленький воин скачать торрент
    Маленький воин смотреть онлайн
    Cкачать фильм Маленький воин бесплатно
    Маленький воин скачать торрент в хорошем качестве
    Маленький воин смотреть онлайн бесплатно в хорошем качестве
    Вы не можете начинать темы
    Вы не можете отвечать на сообщения
    Вы не можете редактировать свои сообщения
    Вы не можете удалять свои сообщения
    Вы не можете голосовать в опросах
    Вы не можете прикреплять файлы к сообщениям
    Вы можете скачивать файлы
    Маленький воин [2021, Семейный, комедия, WEB-DL 1080p] смотреть онлайн, скачать торрент picoco.icu