Всегда рабочее зеркало без VPN и Proxy просто перед .vidak.icu напиши любое слово или цифру, Пример http://zaxp.vidak.icu

MVO

Лицензия

1 сезон

1

1 сезон

iTunes

1 сезон

13

1 сезон

Deluxe

pack

Рекомендуем

Пиратка

30

ВАЖНО

RePack

MK11

RePack

jed

RePack

fifa19

RePack

RDR2

RePack

NEED FOR SPEED™ PAYBACK

Кинопоиск HD

6 сезон

 Острые козырьки 6 сезон

Все сериалы

все сериалы на PB.wtf

RePack

FAR CRY 5
  
Magnet ссылка

Время / In Time (Эндрю Никкол) [2011, Фантастика, триллер, драма, мелодрама, криминал, BDRip (HEVC)1080p] 2x[Dub] (Rus, Ukr) + 2x[AVO] (Гаврилов, Сербин) pb.wtf

Время через торрент pb.wtf

Раздают: 1 [ 0 KB/s ]
Размер: 3.69 GB | Добавлен: 4 мес. 17 д. назад | Торрент скачан:47 раз
Смотреть онлайн Время | Скачать    Ребята, помогите собрать деньги на оплату серверов!!!

06-08-2021 18:17 Время Скачать торрент  

Время / In Time
«Живи вечно или умри, пытаясь»


✦ Год выпуска: 2011
✦ Выпущено: США
✦ Жанр: фантастика, триллер, драма, мелодрама, криминал
✦ Продолжительность: 01:49:55
✦ Перевод #1: Дублированный
✦ Перевод #2: Авторский (одноголосый закадровый) Андрей Гаврилов
✦ Перевод #3: Авторский (одноголосый закадровый) Юрий Сербин
✦ Перевод #4: Дублированный - Украинский
✦ Субтитры: русские (forced, full), украинские (forced, full), английские
✦ Режиссер: Эндрю Никкол

✦ В ролях: Джастин Тимберлэйк (Will Salas), Аманда Сайфред (Sylvia Weis), Киллиан Мёрфи (Raymond Leon), Алекс Петтифер (Fortis), Шайло Уствальд (Maya), Джонни Галэки (Borel), Колин МакГерк (Citizen), Оливия Уайлд (Rachel Salas), Уилл Харрис (Ulysse), Майкл Уильям Фриман (Nardin), Джесси Ли (Webb), Аарон Перило (Bell)
✦ Описание:
Добро пожаловать в мир, где время стало единственной и самой твердой валютой, где люди генетически запрограммированы так, что в 25 лет перестают стареть. Правда, последующие годы стоят денег. И вот богатые становятся практически бессмертными, а бедные, как всегда, обречены сражаться за жизнь.
Уилл, бунтарь из гетто, несправедливо обвинен в убийстве с целью грабежа времени и вынужден, захватив заложницу, пуститься в бега. Так, ежеминутно рискуя жизнью, эти двое становятся грозным оружием в борьбе с системой. Но вот вопрос: кто кого? А может быть, в дело вмешается третья сила?..

rating

✦ Качество: BDRip (HEVC)1080p
✦ Формат: MKV
✦ Видео кодек: x.265
✦ Аудио кодек: AC3, AAC
✦ Видео: HEVC, 1920x816, 2725 Kbps, 23,976 fps, 10 bits
✦ Аудио #1: 48 kHz, AC3, 6 ch, ~384 kbps avg | DUB
✦ Аудио #2: 48 kHz, AC3, 6 ch, ~384 kbps avg | Андрей Гаврилов
✦ Аудио #3: 48 kHz, AC3, 6 ch, ~384 kbps avg | Юрий Сербин
✦ Аудио #4: 48 kHz, AC3, 6 ch, ~384 kbps avg | Ukr DUB
✦ Аудио #5: 48 kHz, AC3, 6 ch, ~448 kbps avg | English
скриншот   скриншот   скриншот   скриншот   скриншот   скриншот  
General
Unique ID : 206428853955064730721226428739401525668 (0x9B4CC0498401EEFF8A5D15B15FDBA9A4)
Complete name : D:\КИНО\In Time.2011.BDRip (HEVC)1080p.2x[DUB] (Rus, Ukr), 2x[AVO] (Gavrilov,Serbin).xz.mkv
Format : Matroska
Format version : Version 4
File size : 3.69 GiB
Duration : 1 h 49 min
Overall bit rate : 4 805 kb/s
Movie name : In Time.2011.BDRip (HEVC)1080p.2x[DUB] (Rus, Ukr), 2x[AVO] (Gavrilov,Serbin).xz
Encoded date : UTC 2021-08-06 17:56:11
Writing application : mkvmerge v6.1.0 ('Old Devil') built on Mar 2 2013 14:32:37
Writing library : libebml v1.3.0 + libmatroska v1.4.0 / Lavf58.29.100

Video
ID : 1
Format : HEVC
Format/Info : High Efficiency Video Coding
Format profile : Main@L4@Main
Codec ID : V_MPEGH/ISO/HEVC
Duration : 1 h 49 min
Bit rate : 2 725 kb/s
Width : 1 920 pixels
Height : 816 pixels
Display aspect ratio : 2.35:1
Frame rate mode : Constant
Frame rate : 23.976 (24000/1001) FPS
Color space : YUV
Chroma subsampling : 4:2:0
Bit depth : 8 bits
Bits/(Pixel*Frame) : 0.073
Stream size : 2.09 GiB (57%)
Title : In Time.2011.BDRip (HEVC)1080p.2x[DUB] (Rus, Ukr), 2x[AVO] (Gavrilov,Serbin).xz
Writing library : x265 3.2.1+1-b5c86a64bbbe:[Windows][GCC 9.2.0][64 bit] 8bit+10bit+12bit
Encoding settings : cpuid=1064959 / frame-threads=2 / numa-pools=6 / wpp / no-pmode / no-pme / no-psnr / no-ssim / log-level=2 / input-csp=1 / input-res=1920x816 / interlace=0 / total-frames=0 / level-idc=0 / high-tier=1 / uhd-bd=0 / ref=3 / no-allow-non-conformance / no-repeat-headers / annexb / no-aud / no-hrd / info / hash=0 / no-temporal-layers / open-gop / min-keyint=24 / keyint=240 / gop-lookahead=0 / bframes=4 / b-adapt=0 / b-pyramid / bframe-bias=0 / rc-lookahead=15 / lookahead-slices=5 / scenecut=40 / radl=0 / no-splice / no-intra-refresh / ctu=64 / min-cu-size=8 / no-rect / no-amp / max-tu-size=32 / tu-inter-depth=1 / tu-intra-depth=1 / limit-tu=0 / rdoq-level=0 / dynamic-rd=0.00 / no-ssim-rd / signhide / no-tskip / nr-intra=0 / nr-inter=0 / no-constrained-intra / strong-intra-smoothing / max-merge=2 / limit-refs=3 / no-limit-modes / me=1 / subme=2 / merange=57 / temporal-mvp / no-hme / weightp / no-weightb / no-analyze-src-pics / deblock=0:0 / sao / no-sao-non-deblock / rd=2 / selective-sao=4 / no-early-skip / rskip / fast-intra / no-tskip-fast / no-cu-lossless / no-b-intra / no-splitrd-skip / rdpenalty=0 / psy-rd=2.00 / psy-rdoq=0.00 / no-rd-refine / no-lossless / cbqpoffs=0 / crqpoffs=0 / rc=crf / crf=18.5 / qcomp=0.60 / qpstep=4 / stats-write=0 / stats-read=0 / ipratio=1.40 / pbratio=1.30 / aq-mode=2 / aq-strength=1.00 / cutree / zone-count=0 / no-strict-cbr / qg-size=32 / no-rc-grain / qpmax=69 / qpmin=0 / no-const-vbv / sar=1 / overscan=0 / videoformat=5 / range=0 / colorprim=1 / transfer=1 / colormatrix=1 / chromaloc=0 / display-window=0 / cll=0,0 / min-luma=0 / max-luma=255 / log2-max-poc-lsb=8 / vui-timing-info / vui-hrd-info / slices=1 / no-opt-qp-pps / no-opt-ref-list-length-pps / no-multi-pass-opt-rps / scenecut-bias=0.05 / no-opt-cu-delta-qp / no-aq-motion / no-hdr / no-hdr-opt / no-dhdr10-opt / no-idr-recovery-sei / analysis-reuse-level=5 / scale-factor=0 / refine-intra=0 / refine-inter=0 / refine-mv=1 / refine-ctu-distortion=0 / no-limit-sao / ctu-info=0 / no-lowpass-dct / refine-analysis-type=0 / copy-pic=1 / max-ausize-factor=1.0 / no-dynamic-refine / no-single-sei / no-hevc-aq / no-svt / no-field / qp-adaptation-range=1.00
Default : Yes
Forced : No
Color range : Limited
Color primaries : BT.709
Transfer characteristics : BT.709
Matrix coefficients : BT.709
Duration_Source : General_Duration

Audio #1
ID : 2
Format : AC-3
Format/Info : Audio Coding 3
Commercial name : Dolby Digital
Codec ID : A_AC3
Duration : 1 h 49 min
Bit rate mode : Constant
Bit rate : 384 kb/s
Channel(s) : 6 channels
Channel layout : L R C LFE Ls Rs
Sampling rate : 48.0 kHz
Frame rate : 31.250 FPS (1536 SPF)
Compression mode : Lossy
Delay relative to video : -5 ms
Stream size : 302 MiB (8%)
Title : DUB
Language : Russian
Service kind : Complete Main
Default : Yes
Forced : No
Duration_Source : General_Duration

Audio #2
ID : 3
Format : AC-3
Format/Info : Audio Coding 3
Commercial name : Dolby Digital
Codec ID : A_AC3
Duration : 1 h 49 min
Bit rate mode : Constant
Bit rate : 384 kb/s
Channel(s) : 6 channels
Channel layout : L R C LFE Ls Rs
Sampling rate : 48.0 kHz
Frame rate : 31.250 FPS (1536 SPF)
Compression mode : Lossy
Delay relative to video : 15 ms
Stream size : 302 MiB (8%)
Title : Gavrilov
Language : Russian
Service kind : Complete Main
Default : No
Forced : No
Duration_Source : General_Duration

Audio #3
ID : 4
Format : AC-3
Format/Info : Audio Coding 3
Commercial name : Dolby Digital
Codec ID : A_AC3
Duration : 1 h 49 min
Bit rate mode : Constant
Bit rate : 384 kb/s
Channel(s) : 6 channels
Channel layout : L R C LFE Ls Rs
Sampling rate : 48.0 kHz
Frame rate : 31.250 FPS (1536 SPF)
Compression mode : Lossy
Delay relative to video : 15 ms
Stream size : 302 MiB (8%)
Title : Serbin
Language : Russian
Service kind : Complete Main
Default : No
Forced : No
Duration_Source : General_Duration

Audio #4
ID : 5
Format : AC-3
Format/Info : Audio Coding 3
Commercial name : Dolby Digital
Codec ID : A_AC3
Duration : 1 h 49 min
Bit rate mode : Constant
Bit rate : 384 kb/s
Channel(s) : 6 channels
Channel layout : L R C LFE Ls Rs
Sampling rate : 48.0 kHz
Frame rate : 31.250 FPS (1536 SPF)
Compression mode : Lossy
Delay relative to video : -5 ms
Stream size : 302 MiB (8%)
Title : Ukr DUB
Language : Ukrainian
Service kind : Complete Main
Default : No
Forced : No
Duration_Source : General_Duration

Audio #5
ID : 6
Format : AC-3
Format/Info : Audio Coding 3
Commercial name : Dolby Digital
Codec ID : A_AC3
Duration : 1 h 49 min
Bit rate mode : Constant
Bit rate : 448 kb/s
Channel(s) : 6 channels
Channel layout : L R C LFE Ls Rs
Sampling rate : 48.0 kHz
Frame rate : 31.250 FPS (1536 SPF)
Compression mode : Lossy
Delay relative to video : -5 ms
Stream size : 352 MiB (9%)
Title : ENG
Language : English
Service kind : Complete Main
Default : No
Forced : No

Text #1
ID : 7
Format : UTF-8
Codec ID : S_TEXT/UTF8
Codec ID/Info : UTF-8 Plain Text
Title : rus (forced)
Language : Russian
Default : Yes
Forced : No

Text #2
ID : 8
Format : UTF-8
Codec ID : S_TEXT/UTF8
Codec ID/Info : UTF-8 Plain Text
Title : rus (full)
Language : Russian
Default : No
Forced : No

Text #3
ID : 9
Format : UTF-8
Codec ID : S_TEXT/UTF8
Codec ID/Info : UTF-8 Plain Text
Title : ukr (forced)
Language : Ukrainian
Default : No
Forced : No

Text #4
ID : 10
Format : UTF-8
Codec ID : S_TEXT/UTF8
Codec ID/Info : UTF-8 Plain Text
Title : ukr (full)
Language : Ukrainian
Default : No
Forced : No

Text #5
ID : 11
Format : UTF-8
Codec ID : S_TEXT/UTF8
Codec ID/Info : UTF-8 Plain Text
Title : eng
Language : English
Default : No
Forced : No

Text #6
ID : 12
Format : UTF-8
Codec ID : S_TEXT/UTF8
Codec ID/Info : UTF-8 Plain Text
Title : SDH
Language : English
Default : No
Forced : No

Menu
00:00:00.000 : :00:00:00.000
00:06:08.493 : :00:06:08.493
00:11:09.586 : :00:11:09.586
00:19:20.201 : :00:19:20.201
00:22:35.145 : :00:22:35.145
00:27:20.222 : :00:27:20.222
00:30:07.556 : :00:30:07.556
00:35:00.599 : :00:35:00.598
00:38:26.471 : :00:38:26.471
00:41:42.834 : :00:41:42.792
00:44:45.558 : :00:44:45.558
00:48:27.113 : :00:48:27.113
00:51:51.400 : :00:51:51.400
00:54:15.002 : :00:54:15.002
00:56:35.642 : :00:56:35.642
01:00:45.183 : :01:00:45.183
01:05:59.998 : :01:05:59.998
01:09:15.902 : :01:09:15.902
01:12:35.643 : :01:12:35.643
01:14:24.961 : :01:14:24.960
01:17:08.833 : :01:17:08.833
01:20:39.835 : :01:20:39.835
01:23:03.145 : :01:23:03.145
01:27:36.960 : :01:27:36.960
01:29:42.252 : :01:29:42.252
01:33:39.531 : :01:33:39.531
01:41:29.417 : :01:41:29.292
01:43:13.562 : :01:43:13.562
pb.wtf



Скачать Время через торрент https://i2.imageban.ru/out/2021/08/06/535699b590d8d4edab69e8540e0dc124.png Скачать, смотреть онлайн Время бесплантно в хорошем качестве Описание:Добро пожаловать в мир, где время стало единственной и самой твердой валютой, где люди генетически запрограммированы так, что в 25 ... 9.1 10 10
Торрент: Зарегистрирован [2022-02-15 21:10] · скачан: 47 раз
Статус: √ проверено
Размер: 3.69 GB
Как cкачать? Как скачать Время через торрент | UTorrent

% Раздел Тема Автор DL S | L
T Фильмы 2021 [DVDrip, WEB-DLRip, HDrip] (DUB, MVO) [ 3.8 GB ] Не время умирать / No Time to Die [2021 WEB-DLRip-AVC] DUB MVO [TS Jaskier] от ExKinoRay Lithuania Скачать
1 | 0
Фильмы 2011 [ 2.04 GB ] Время / In Time [2011 BDRip] + 2x[AVO] killermax2013 Скачать
1 | 0
Лесбиянки [ 3.13 GB ] Время "девочка на девочке" / Girl On Girl Time [2013 Lesbian All Girl Girl-Girl Toy Play DVDRip] Liloo_Foofyga Скачать
1 | 0
Фильмы [HD 720p, 1080p] (Хороший звук DUB, MVO) [ 7.45 GB ] Время / In Time [2011 BDRip-HEVC 1080p] DUB + AVO - KORSAR kisa1980 Скачать
1 | 0
Фильмы (Blu-ray, BD-Remux, HDDVD) [ 33.84 GB ] Время / In Time [2011 BD Remux 1080p] 2xAVO+DUB [] bober100 Скачать
1 | 0
T Фильмы (мультфильмы) cо спонсором показа (Новинки AVI/MKV) [ 2.92 GB ] В Божье время / In God's Time / The Wristwatch [2017 WEB-DL 720p] MVO ["Синема УС"] bober100 Скачать
1 | 0
T Фильмы (мультфильмы) cо спонсором показа (Новинки AVI/MKV) [ 1.37 GB ] В Божье время / In God's Time / The Wristwatch [2017 WEB-DLRip] MVO ["Синема УС"] bober100 Скачать
1 | 0


Последний раз редактировалось: killermax2013 (2022-02-15 21:10), всего редактировалось 1 раз

28-11-2019 20:33  

Отключить всю рекламу на сайте

06-08-2021 23:15 Время Скачать торрент  

это прикольный фильмpb.wtf



16-02-2022 14:18 Время Скачать торрент  

***del
НЕ СООТВЕСТВУЕТ ОБЛОЖКЕ!pb.wtf



17-02-2022 19:23 Время Скачать торрент  

На раз.
Посмотреть и забыть.pb.wtf



    Дорогой пользователь! Огромная просьба, поблагодарите релизера, оцените раздачу и оставьте свои комментарий, если Вы скачали Время через торрент бесплатно!
    Комментировать посты могут только пользователи прошедшие не сложную регистрацию
    Показать сообщения:    

    Время через торрент
    Скачать бесплатно Время
    Время скачать торрент
    Время смотреть онлайн
    Cкачать фильм Время бесплатно
    Время скачать торрент в хорошем качестве
    Время смотреть онлайн бесплатно в хорошем качестве


    Вы не можете начинать темы
    Вы не можете отвечать на сообщения
    Вы не можете редактировать свои сообщения
    Вы не можете удалять свои сообщения
    Вы не можете голосовать в опросах
    Вы не можете прикреплять файлы к сообщениям
    Вы можете скачивать файлы