Архив 81

1 сезон

Добыча

Дубляж

Тед Лассо

3 сезон

Тор

1 сезон

13 клиническая

3 сезон

Жестокая ночь

Дубляж

Одни из нас

1s 9e

Premium

Premium

Deluxe

Deluxe

pack

Рекомендуем

30

Repack

ВАЖНО

ВАЖНО

Ghostwire

Пиратка

jed

RePack

nioh2

RePack

RDR2

RePack

NEED FOR SPEED™ PAYBACK

RePack

скачать торрент

Кинопоиск HD

Острые козырьки 6 сезон

6 сезон

FAR CRY 6

RePack

скачать торрент

Лицензия

скачать торрент

MVO

1

1 сезон

скачать торрент

1 сезон

скачать торрент

Лицензия

  

Легенда о Зелёном Рыцаре / The Green Knight (Дэвид Лоури) [2021, Фэнтези, приключения, WEB-DLRip-AVC] MVO [Jaskier]

Легенда о Зелёном Рыцаре через торрент pb.wtf

Размер: 1.66 GB | Добавлен: 1 год 7 мес. назад | Торрент скачан:453 раза
Смотреть онлайн | Скачать | Поддержите нас   

22-08-2021 09:25 Легенда о Зелёном Рыцаре Скачать торрент  

Легенда о Зелёном Рыцаре | The Green Knight
Год выпуска: 2021
Страна: Ирландия, Канада, США, Великобритания
Выпущено: Ирландия, Канада, США, Великобритания, Sailor Bear, BRON Studios, A24
Жанр: Фэнтези, приключения
Продолжительность: 02:09:45
Перевод: Профессиональный (многоголосый) | Jaskier
Субтитры: Русские (full (от FOCS)), английские

Режиссер: Дэвид Лоури

rating

В ролях: Анаис Риццо, Джо Андерсон, Дев Патель, Алисия Викандер, Ноэль Браун, Сарита Чоудхури, Нита Мишра, Тара МакДонах, Афина Фриззелл, Шон Харрис, Кейт Дики, Крис Макхаллем, Ралф Айнесон, Брендан Конрой, Доннча Краули, Барри Кеоган

Описание: Во времена легенд и магии, когда честь была превыше всего, сэр Гавейн принимает вызов таинственного Зеленого Рыцаря. Теперь наследник Короля Артура, рыцарь Круглого стола, должен покинуть Камелот и отправиться в опасное странствие через проклятые земли.

Качество: WEB-DLRip-AVC
Формат: MKV

Видео: 1024x554 at 23.976 fps, [email protected], ~1403 kbps
Аудио: AC3, 6 ch, ~448 kbps - | Русский |
скриншот  скриншот  скриншот  скриншот  скриншот  

x264 [info]: frame I:1313 Avg QP:13.90 size: 59178
x264 [info]: frame P:36502 Avg QP:15.98 size: 18571
x264 [info]: frame B:148842 Avg QP:17.81 size: 4094

General
Unique ID : 259955925717150700536803805335381266404 (0xC391B0AE0F8E1397C690D29E30D6CFE4)
Complete name : I:Легенда о Зелёном Рыцаре.(2021).AMZN.WEB-DLRip-AVC.[-=DoMiNo=-].mkv
Format : Matroska
Format version : Version 4
File size : 1.66 GiB
Duration : 2 h 9 min
Overall bit rate : 1 834 kb/s
Movie name : Легенда о Зелёном Рыцаре.(2021).AMZN.WEB-DLRip-AVC.[-=DoMiNo=-]
Encoded date : UTC 2021-08-22 09:09:11
Writing application : mkvmerge v60.0.0 ('Are We Copies?') 64-bit
Writing library : libebml v1.4.2 + libmatroska v1.6.4
Cover : Yes
Attachments : Cover.jpg / Cover 2.jpg

Video
ID : 1
Format : AVC
Format/Info : Advanced Video Codec
Format profile : [email protected]
Format settings : CABAC / 12 Ref Frames
Format settings, CABAC : Yes
Format settings, Reference : 12 frames
Codec ID : V_MPEG4/ISO/AVC
Duration : 2 h 9 min
Bit rate : 1 403 kb/s
Width : 1 024 pixels
Height : 554 pixels
Display aspect ratio : 1.85:1
Frame rate mode : Constant
Frame rate : 23.976 (24000/1001) FPS
Color space : YUV
Chroma subsampling : 4:2:0
Bit depth : 8 bits
Scan type : Progressive
Bits/(Pixel*Frame) : 0.103
Stream size : 1.27 GiB (76%)
Title : -=DoMiNo=-
Writing library : x264 core 164 r3065+55M 280faca t_mod_New [(8 & 10)[email protected] X86_64]
Encoding settings : cabac=1 / ref=12 / deblock=1:-3:-2 / analyse=0x3:0x133 / me=umh / subme=10 / psy=1 / fade_compensate=0.00 / psy_rd=1.00:0.20 / mixed_ref=1 / me_range=32 / chroma_me=1 / trellis=2 / 8x8dct=1 / cqm=0 / deadzone=21,11 / fast_pskip=0 / chroma_qp_offset=-3 / threads=24 / lookahead_threads=4 / sliced_threads=0 / nr=0 / decimate=1 / interlaced=0 / bluray_compat=0 / constrained_intra=0 / fgo=0 / bframes=12 / b_pyramid=2 / b_adapt=2 / b_bias=0 / direct=1 / weightb=1 / open_gop=0 / weightp=2 / keyint=240 / keyint_min=23 / scenecut=40 / intra_refresh=0 / rc_lookahead=60 / rc=crf / mbtree=0 / crf=20.0000 / qcomp=0.60 / qpmin=0:0:0 / qpmax=69:69:69 / qpstep=4 / vbv_maxrate=50000 / vbv_bufsize=62500 / crf_max=0.0 / nal_hrd=none / filler=0 / ip_ratio=1.30 / pb_ratio=1.20 / aq=3:1.00 / aq-sensitivity=10.00 / aq-factor=1.00:1.00:1.00 / aq2=0 / aq3=0
Language : English
Default : Yes
Forced : No
Color range : Limited
Color primaries : BT.709
Transfer characteristics : BT.709
Matrix coefficients : BT.709

Audio
ID : 2
Format : AC-3
Format/Info : Audio Coding 3
Commercial name : Dolby Digital
Codec ID : A_AC3
Duration : 2 h 4 min
Bit rate mode : Constant
Bit rate : 448 kb/s
Channel(s) : 6 channels
Channel layout : L R C LFE Ls Rs
Sampling rate : 48.0 kHz
Frame rate : 31.250 FPS (1536 SPF)
Compression mode : Lossy
Stream size : 398 MiB (23%)
Title : [MVO] Jaskier
Language : Russian
Service kind : Complete Main
Default : Yes
Forced : No

Text #1
ID : 3
Format : UTF-8
Codec ID : S_TEXT/UTF8
Codec ID/Info : UTF-8 Plain Text
Duration : 2 h 4 min
Bit rate : 35 b/s
Count of elements : 788
Stream size : 32.5 KiB (0%)
Title : [Full]от FOCS
Language : Russian
Default : No
Forced : No

Text #2
ID : 4
Format : UTF-8
Codec ID : S_TEXT/UTF8
Codec ID/Info : UTF-8 Plain Text
Duration : 2 h 5 min
Bit rate : 21 b/s
Count of elements : 829
Stream size : 19.9 KiB (0%)
Language : English
Default : No
Forced : No




Скачать Легенда о Зелёном Рыцаре через торрент https://i115.fastpic.org/big/2021/0821/1f/92d639fac2521ea3767a09602bc4821f.jpg Скачать, смотреть онлайн Легенда о Зелёном Рыцаре бесплантно в хорошем качестве Описание: Во времена легенд и магии, когда честь была превыше всего, сэр Гавейн принимает вызов таинственного Зеленого Рыцаря. Теперь ... 9.7 10 10
Торрент: Зарегистрирован [2021-08-22 09:25] · скачан: 453 раз
Статус: √ проверено
Размер: 1.66 GB
Как cкачать? Как скачать Легенда о Зелёном Рыцаре через торрент | UTorrent

% Раздел Тема Автор DL S | L
Фильмы 2021 [DVDrip, WEB-DLRip, HDrip] (DUB, MVO) [ 2.18 GB ] Легенда о Зелёном Рыцаре / The Green Knight | Дубляж - | BDRip Twi7ter Скачать
3 | 1
Ultra HD (UHD: 2K, 4K, 8K) [ 13.89 GB ] Легенда о Зелёном Рыцаре / The Green Knight | Jaskier | 2160p bober100 Скачать
1 | 0
Фильмы [HD 720p, 1080p] (Звук Cam, VO, DVO) [ 11.52 GB ] Легенда о Зелёном Рыцаре / The Green Knight | | 1080p bober100 Скачать
1 | 0
Фильмы 2021 [DVDrip, WEB-DLRip, HDrip] (DUB, MVO) [ 1.46 GB ] Легенда о Зелёном Рыцаре / The Green Knight | Дубляж - | BDRip Twi7ter Скачать
3 | 0
Фильмы 2021 [DVDrip, WEB-DLRip, HDrip] (DUB, MVO) [ 2.49 GB ] Легенда о Зелёном Рыцаре / The Green Knight | DUB | DLRip-AVC Lithuania Скачать
1 | 0
Ultra HD (UHD: 2K, 4K, 8K) [ 70.9 GB ] Легенда о Зелёном Рыцаре / The Green Knight | DUB | 2160p, (Dolby Vision bober100 Скачать
1 | 0
Ultra HD (UHD: 2K, 4K, 8K) [ 59.67 GB ] Легенда о Зелёном Рыцаре / The Green Knight | DUB | 2160p, (Dolby Vision Profile 8 bober100 Скачать
1 | 0

28-11-2019 20:33  


Отключить вcю реклaмy на сайте, в т.ч. и в плеере онлайн просмотра!

22-08-2021 13:47 Легенда о Зелёном Рыцаре Скачать торрент  

а дубляж будет?



25-08-2021 09:00 Легенда о Зелёном Рыцаре Скачать торрент  

прежде чем пихать толерантность в кино, нужно хотя бы знать немного об том с каких времен мог темнокожий полукровка быть при дворе знати...и уж тем более в роли короля вахахахаха. Исторический кино ляп во всей красе))) сюжет тоже из разряда инста новости.



25-08-2021 14:46 Легенда о Зелёном Рыцаре Скачать торрент  

тогда арабов называли "маврами" а о существовании негров вообще не знали !!! заколебали эти америкосы везде совать черножопых обезьян !! это же абсурд !!!



    Дорогой пользователь! Огромная просьба, поблагодарите релизера, оцените раздачу и оставьте свои комментарий, если Вы скачали Легенда о Зелёном Рыцаре через торрент бесплатно!!
    Комментировать посты могут только пользователи прошедшие не сложную регистрацию
    Показать сообщения:    


    Легенда о Зелёном Рыцаре через торрент
    Скачать бесплатно Легенда о Зелёном Рыцаре
    Легенда о Зелёном Рыцаре скачать торрент
    Легенда о Зелёном Рыцаре смотреть онлайн
    Cкачать фильм Легенда о Зелёном Рыцаре бесплатно
    Легенда о Зелёном Рыцаре скачать торрент в хорошем качестве
    Легенда о Зелёном Рыцаре смотреть онлайн бесплатно в хорошем качестве
    Вы не можете начинать темы
    Вы не можете отвечать на сообщения
    Вы не можете редактировать свои сообщения
    Вы не можете удалять свои сообщения
    Вы не можете голосовать в опросах
    Вы не можете прикреплять файлы к сообщениям
    Вы можете скачивать файлы
    Легенда о Зелёном Рыцаре / The Green Knight [2021, Фэнтези, приключения, WEB-DLRip-AVC] MVO [Jaskier] смотреть онлайн, скачать торрент picoco.icu