Доктор Стрэндж

Лицензия

Добыча

Дубляж

Дом дракона

1 сезон

Тор

Дубляж

В эфире

Дубляж

Там, где раки поют

MVO

Властелин колец

1 сезон

GLOBAL

pack

Рекомендуем

30

Пиратка

ВАЖНО

ВАЖНО

Ghostwire

Пиратка

jed

RePack

nioh2

RePack

RDR2

RePack

NEED FOR SPEED™ PAYBACK

RePack

скачать торрент

Кинопоиск HD

Острые козырьки 6 сезон

6 сезон

FAR CRY 6

RePack

скачать торрент

Лицензия

скачать торрент

MVO

1

1 сезон

скачать торрент

1 сезон

скачать торрент

Лицензия

  

Чёрная Вдова 3Д / Black Widow 3D (Кейт Шортланд) [2021, Фантастика, боевик, приключения, BDRip 1080p, (IMAX version)] [Half OverUnder] Дубляж (rus, ukr) [iTunes]

Чёрная Вдова 3Д через торрент pb.wtf

Размер: 10.48 GB | Добавлен: 1 год 2 мес. назад | Торрент скачан:160 раз
Смотреть онлайн | Скачать   

18-09-2021 18:47 Чёрная Вдова 3Д Скачать торрент  

Чёрная Вдова 3Д
Black Widow 3D
«Она перестала убегать от своего прошлого»
[IMAX version / IMAX версия]

Год выпуска: 2021
Страна: США
Студия: Marvel Studios Inc.
Жанр: Фантастика, боевик, приключения
Продолжительность: 02:13:46
Перевод: Дублированный | iTunes
Субтитры:
Вшитые (softsub):
#1 - Русские Форсированные (включены по умолчанию)
#2 - Русские Полные (iTunes)
#3 - Украинские Форсированные (спасибо Hurtom!)
#4 - English Forced
#5 - English Full
#6 - English SDH

Внешние (UTF-8):
#1 - Русские Форсированные (включены по умолчанию)
#2 - Русские Полные (iTunes)
#3 - Украинские Форсированные (спасибо Hurtom!)
#4 - English Forced

Режиссер: Кейт Шортланд

rating

В ролях: Скарлетт Йоханссон, Флоренс Пью, Дэвид Харбор, Рэйчел Вайс, О. Т. Фагбенли, Рэй Уинстон, Мишель Ли, Оливье Рихтерс, Ахмед Бакаре, Иоланда Лайнс, Эвер Андерсон, Ольга Куриленко

Описание: Сольный проект о русской разведчице Наташе Романофф, известной как Черная Вдова, рассказывает о событиях из жизни супергероини задолго до встречи со Мстителями. Спустя годы после побега из дома, где Наташа жила фальшивой жизнью со своей «семьей», героиня решает отомстить русскому магнату Дрейкову, ответственному за то, что она, как и множество других девушек, была превращена в орудие убийства. Пытаясь отыскать злодея, Наташа воссоединяется с «родственниками».

Качество: BDRip 1080p
Формат: MKV

Видео: AVC / 1920х1080p / 23,976 fps / 10.0 Mbps
#1 - Русский / AC3 / 48 KHz / 5.1 ch / 384 Kbps (Дубляж - iTunes)
#2 - Украинский / AC3 / 48 KHz / 2 ch / 192 Kbps (Дубляж - Line) (моно) (спасибо Hurtom!)
#3 - English / AC3 / 48 KHz / 5.1 ch / 640 Kbps (Original - BD 3D Jap)
Формат 3D: Half OverUnder / Вертикальная анаморфная стереопара
Порядок ракурсов: левый ракурс первый
скриншот  скриншот  скриншот  скриншот  скриншот  

скриншот  скриншот  скриншот  скриншот  скриншот  

General
Unique ID : 183789089543477408395901496065990749924 (0x8A447DB8C090E56990E0751AB7166EE4)
Complete name : D:BlackWidow(2021)3D-hOU(Ash61)iTunesBlackWidow(2021)3D-hOU(Ash61)iTunes.mkv
Format : Matroska
Format version : Version 2
File size : 10.5 GiB
Duration : 2 h 13 min
Overall bit rate : 11.2 Mb/s
Movie name : Чёрная Вдова / Black Widow (2021) in 3D
Encoded date : UTC 2021-09-18 15:24:47
Writing application : mkvmerge v5.8.0 ('No Sleep / Pillow') built on Sep 2 2012 15:37:04
Writing library : libebml v1.2.3 + libmatroska v1.3.0

Video
ID : 1
Format : AVC
Format/Info : Advanced Video Codec
Format profile : [email protected]
Format settings : CABAC / 4 Ref Frames
Format settings, CABAC : Yes
Format settings, Reference : 4 frames
Codec ID : V_MPEG4/ISO/AVC
Duration : 2 h 13 min
Bit rate : 10 000 kb/s
Width : 1 920 pixels
Height : 1 080 pixels
Display aspect ratio : 16:9
Frame rate mode : Constant
Frame rate : 23.976 (24000/1001) FPS
Color space : YUV
Chroma subsampling : 4:2:0
Bit depth : 8 bits
Scan type : Progressive
Bits/(Pixel*Frame) : 0.201
Stream size : 9.14 GiB (87%)
Title : BDRip by Ash61
Writing library : x264 core 146 r2538 121396c
Encoding settings : cabac=1 / ref=4 / deblock=1:-3:-3 / analyse=0x3:0x113 / me=umh / subme=10 / psy=1 / psy_rd=1.00:0.00 / mixed_ref=1 / me_range=32 / chroma_me=1 / trellis=2 / 8x8dct=1 / cqm=0 / deadzone=21,11 / fast_pskip=0 / chroma_qp_offset=-2 / threads=12 / lookahead_threads=2 / sliced_threads=0 / nr=0 / decimate=0 / interlaced=0 / bluray_compat=0 / constrained_intra=0 / bframes=9 / b_pyramid=2 / b_adapt=2 / b_bias=0 / direct=3 / weightb=1 / open_gop=0 / weightp=2 / keyint=250 / keyint_min=23 / scenecut=40 / intra_refresh=0 / rc_lookahead=60 / rc=2pass / mbtree=0 / bitrate=10000 / ratetol=1.0 / qcomp=0.70 / qpmin=0 / qpmax=69 / qpstep=4 / cplxblur=20.0 / qblur=0.5 / vbv_maxrate=40000 / vbv_bufsize=30000 / nal_hrd=none / filler=0 / frame-packing=4 / ip_ratio=1.40 / pb_ratio=1.30 / aq=1:0.70
Language : English
Default : Yes
Forced : No

Audio #1
ID : 2
Format : AC-3
Format/Info : Audio Coding 3
Commercial name : Dolby Digital
Codec ID : A_AC3
Duration : 2 h 13 min
Bit rate mode : Constant
Bit rate : 384 kb/s
Channel(s) : 6 channels
Channel layout : L R C LFE Ls Rs
Sampling rate : 48.0 kHz
Frame rate : 31.250 FPS (1536 SPF)
Compression mode : Lossy
Stream size : 367 MiB (3%)
Title : Дубляж (iTunes)
Language : Russian
Service kind : Complete Main
Default : Yes
Forced : No

Audio #2
ID : 3
Format : AC-3
Format/Info : Audio Coding 3
Commercial name : Dolby Digital
Codec ID : A_AC3
Duration : 2 h 13 min
Bit rate mode : Constant
Bit rate : 192 kb/s
Channel(s) : 2 channels
Channel layout : L R
Sampling rate : 48.0 kHz
Frame rate : 31.250 FPS (1536 SPF)
Compression mode : Lossy
Stream size : 184 MiB (2%)
Title : Дубляж (Line, моно)
Language : Ukrainian
Service kind : Complete Main
Default : No
Forced : No

Audio #3
ID : 4
Format : AC-3
Format/Info : Audio Coding 3
Commercial name : Dolby Digital
Codec ID : A_AC3
Duration : 2 h 13 min
Bit rate mode : Constant
Bit rate : 640 kb/s
Channel(s) : 6 channels
Channel layout : L R C LFE Ls Rs
Sampling rate : 48.0 kHz
Frame rate : 31.250 FPS (1536 SPF)
Compression mode : Lossy
Stream size : 612 MiB (6%)
Title : Original
Language : English
Service kind : Complete Main
Default : No
Forced : No

Text #1
ID : 5
Format : UTF-8
Codec ID : S_TEXT/UTF8
Codec ID/Info : UTF-8 Plain Text
Title : Форсированные
Language : Russian
Default : Yes
Forced : No

Text #2
ID : 6
Format : UTF-8
Codec ID : S_TEXT/UTF8
Codec ID/Info : UTF-8 Plain Text
Title : Полные (iTunes)
Language : Russian
Default : No
Forced : No

Text #3
ID : 7
Format : UTF-8
Codec ID : S_TEXT/UTF8
Codec ID/Info : UTF-8 Plain Text
Title : Форсированные
Language : Ukrainian
Default : No
Forced : No

Text #4
ID : 8
Format : UTF-8
Codec ID : S_TEXT/UTF8
Codec ID/Info : UTF-8 Plain Text
Title : Forced
Language : English
Default : No
Forced : No

Text #5
ID : 9
Format : UTF-8
Codec ID : S_TEXT/UTF8
Codec ID/Info : UTF-8 Plain Text
Title : Full
Language : English
Default : No
Forced : No

Text #6
ID : 10
Format : UTF-8
Codec ID : S_TEXT/UTF8
Codec ID/Info : UTF-8 Plain Text
Title : SDH
Language : English
Default : No
Forced : No

Menu
00:00:00.000 : :1
00:04:55.170 : :2
00:13:10.081 : :3
00:16:24.567 : :4
00:18:41.871 : :5
00:21:41.634 : :6
00:25:40.789 : :7
00:30:06.346 : :8
00:39:05.468 : :9
00:44:46.350 : :10
00:53:25.994 : :11
01:01:38.153 : :12
01:07:46.271 : :13
01:11:40.671 : :14
01:17:48.789 : :15
01:27:19.234 : :16
01:33:33.441 : :17
01:37:37.477 : :18
01:41:18.656 : :19
01:45:37.873 : :20
01:51:41.653 : :21
01:57:09.105 : :22
02:01:59.687 : :23
02:04:25.458 : :24




Скачать Чёрная Вдова 3Д через торрент https://d.radikal.ru/d12/2109/d7/049d031ee8d2.png Скачать, смотреть онлайн Чёрная Вдова 3Д бесплантно в хорошем качестве Описание: Сольный проект о русской разведчице Наташе Романофф, известной как Черная Вдова, рассказывает о событиях из жизни супергероини ... 10 10 6
Торрент: Зарегистрирован [2021-09-18 18:47] · скачан: 160 раз
Статус: √ проверено
Размер: 10.48 GB
Как cкачать? Как скачать Чёрная Вдова 3Д через торрент | UTorrent

% Раздел Тема Автор DL S | L
3D Фильмы [ 11.75 GB ] Чёрная Вдова в 3Д / Black Widow 3D | iTunes | 1080p serega768 Скачать
1 | 0

28-11-2019 20:33  


Отключить вcю реклaмy на сайте, в т.ч. и в плеере онлайн просмотра!

    Дорогой пользователь! Огромная просьба, поблагодарите релизера, оцените раздачу и оставьте свои комментарий, если Вы скачали Чёрная Вдова 3Д через торрент бесплатно!!
    Комментировать посты могут только пользователи прошедшие не сложную регистрацию
    Показать сообщения:    


    Чёрная Вдова 3Д через торрент
    Скачать бесплатно Чёрная Вдова 3Д
    Чёрная Вдова 3Д скачать торрент
    Чёрная Вдова 3Д смотреть онлайн
    Cкачать фильм Чёрная Вдова 3Д бесплатно
    Чёрная Вдова 3Д скачать торрент в хорошем качестве
    Чёрная Вдова 3Д смотреть онлайн бесплатно в хорошем качестве
    Вы не можете начинать темы
    Вы не можете отвечать на сообщения
    Вы не можете редактировать свои сообщения
    Вы не можете удалять свои сообщения
    Вы не можете голосовать в опросах
    Вы не можете прикреплять файлы к сообщениям
    Вы можете скачивать файлы
    Чёрная Вдова 3Д / Black Widow 3D [2021, Фантастика, боевик, приключения, BDRip 1080p, ] [Half OverUnder] Дубляж [iTunes] смотреть онлайн, скачать торрент picoco.icu