Доктор Стрэндж

Лицензия

Добыча

Дубляж

Дом дракона

1 сезон

Тор

Дубляж

В эфире

Дубляж

Там, где раки поют

MVO

Властелин колец

1 сезон

GLOBAL

pack

Рекомендуем

30

Пиратка

ВАЖНО

ВАЖНО

Ghostwire

Пиратка

jed

RePack

nioh2

RePack

RDR2

RePack

NEED FOR SPEED™ PAYBACK

RePack

скачать торрент

Кинопоиск HD

Острые козырьки 6 сезон

6 сезон

FAR CRY 6

RePack

скачать торрент

Лицензия

скачать торрент

MVO

1

1 сезон

скачать торрент

1 сезон

скачать торрент

Лицензия

  

Про Лёлю и Миньку (Анна Чернакова) [2019, Семейный, детский, WEB-DL 1080p] [КиноПоиск HD]

Про Лёлю и Миньку через торрент pb.wtf

Размер: 4.17 GB | Добавлен: 1 год 2 мес. назад | Торрент скачан:16 раз
Смотреть онлайн | Скачать   

19-09-2021 10:02 Про Лёлю и Миньку Скачать торрент  

Про Лёлю и Миньку
Год выпуска: 2019
Страна: Россия
Выпущено: Студия Первый А
Жанр: Семейный, детский
Продолжительность: 01:25:29
Перевод: Не требуется | КиноПоиск HD
Субтитры: Русские (Forced), английские

Режиссер: Анна Чернакова



В ролях: Евгения Щербинина, Елисей Мысин, Татьяна Рыбинец, Андрей Емельянов, Сергей Степанченко, Ольга Красько, Валентина Талызина, Роман Мадянов, Аркадий Коваль, Екатерина Кирчак, Александр Адабашьян, Евгений Куршинский, Анастасия Имамова, Денис Бродский, Вячеслав Евлантьев, Сергей Колесников, Елисей Гусев, Александр Обласов, Валерий Соколов, Эвелина Семерикова

Описание: Когда выросший Минька едет навестить свою сестру Лёлю, теперь взрослую женщину с двумя детьми, живущую в доме их детства, всё по дороге напоминает ему весёлые истории из прошлого. Но он не знает, что в результате шалости её «чучел»-близнецов Пети и Феди, Лёле грозят очень серьезные неприятности…

Качество: WEB-DL 1080p
Формат: MKV

Видео: MPEG-4 AVC, 6144 Kb/s, 1920х1080
Аудио #1 Russian: 48 kHz, AC3 Dolby Digital, 3/2 (L, C, R, l, r) + LFE ch, ~448 Kbps | КиноПоиск HD |
Аудио #2 Russian: 48 kHz, Enhanced AC3 Dolby Digital, 3/2 (L, C, R, l, r) + LFE ch, ~448 Kbps | КиноПоиск HD |
скриншот  скриншот  скриншот  скриншот  

Complete name : Pro.Lyolyu.i.Minku.2019.WEB-DL.1080p.ELEKTRI4KA.UNIONGANG.mkv
Format : Matroska
Format version : Version 4
File size : 4.17 GiB
Duration : 1 h 25 min
Overall bit rate : 6 976 kb/s
Movie name : Pro.Lyolyu.i.Minku.2019.WEB-DL.1080p.ELEKTRI4KA.UNIONGANG
Encoded date : UTC 2021-09-18 19:06:11
Writing application : mkvmerge v8.3.0 ('Over the Horizon') 32bit
Writing library : libebml v1.3.1 + libmatroska v1.4.2

Video
ID : 1
Format : AVC
Format/Info : Advanced Video Codec
Format profile : [email protected]
Format settings : 2 Ref Frames
Format settings, CABAC : No
Format settings, Reference frames : 2 frames
Codec ID : V_MPEG4/ISO/AVC
Duration : 1 h 25 min
Bit rate mode : Constant
Bit rate : 6 144 kb/s
Width : 1 920 pixels
Height : 1 080 pixels
Display aspect ratio : 16:9
Frame rate mode : Constant
Frame rate : 24.000 FPS
Color space : YUV
Chroma subsampling : 4:2:0
Bit depth : 8 bits
Scan type : Progressive
Bits/(Pixel*Frame) : 0.123
Stream size : 3.63 GiB (87%)
Default : Yes
Forced : No

Audio #1
ID : 2
Format : AC-3
Format/Info : Audio Coding 3
Commercial name : Dolby Digital
Codec ID : A_AC3
Duration : 1 h 25 min
Bit rate mode : Constant
Bit rate : 448 kb/s
Channel(s) : 6 channels
Channel layout : L R C LFE Ls Rs
Sampling rate : 48.0 kHz
Frame rate : 31.250 FPS (1536 SPF)
Compression mode : Lossy
Stream size : 274 MiB (6%)
Title : Original AC3 (Kinopoisk HD)
Language : Russian
Service kind : Complete Main
Default : Yes
Forced : Yes

Audio #2
ID : 3
Format : E-AC-3
Format/Info : Enhanced AC-3
Commercial name : Dolby Digital Plus
Codec ID : A_EAC3
Duration : 1 h 25 min
Bit rate mode : Constant
Bit rate : 448 kb/s
Channel(s) : 6 channels
Channel layout : L R C LFE Ls Rs
Sampling rate : 48.0 kHz
Frame rate : 31.250 FPS (1536 SPF)
Compression mode : Lossy
Stream size : 274 MiB (6%)
Title : Original E-AC3 (Kinopoisk HD)
Language : Russian
Service kind : Complete Main
Default : No
Forced : No

Text #1
ID : 4
Format : UTF-8
Codec ID : S_TEXT/UTF8
Codec ID/Info : UTF-8 Plain Text
Duration : 1 s 960 ms
Bit rate : 187 b/s
Count of elements : 1
Stream size : 46.0 Bytes (0%)
Title : Forced
Language : Russian
Default : Yes
Forced : No

Text #2
ID : 5
Format : UTF-8
Codec ID : S_TEXT/UTF8
Codec ID/Info : UTF-8 Plain Text
Duration : 1 h 23 min
Bit rate : 63 b/s
Count of elements : 1088
Stream size : 38.5 KiB (0%)
Language : English
Default : No
Forced : No




Скачать Про Лёлю и Миньку через торрент https://i115.fastpic.ru/big/2021/0706/e5/ed6b059da22759a7b6019a786e3ee1e5.jpg Скачать, смотреть онлайн Про Лёлю и Миньку бесплантно в хорошем качестве Описание: Когда выросший Минька едет навестить свою сестру Лёлю, теперь взрослую женщину с двумя детьми, живущую в доме их детства, всё по ... 10 10 2
Торрент: Зарегистрирован [2021-09-19 10:02] · скачан: 16 раз
Статус: √ проверено
Размер: 4.17 GB
Как cкачать? Как скачать Про Лёлю и Миньку через торрент | UTorrent

28-11-2019 20:33  


Отключить вcю реклaмy на сайте, в т.ч. и в плеере онлайн просмотра!

    Дорогой пользователь! Огромная просьба, поблагодарите релизера, оцените раздачу и оставьте свои комментарий, если Вы скачали Про Лёлю и Миньку через торрент бесплатно!!
    Комментировать посты могут только пользователи прошедшие не сложную регистрацию
    Показать сообщения:    


    Про Лёлю и Миньку через торрент
    Скачать бесплатно Про Лёлю и Миньку
    Про Лёлю и Миньку скачать торрент
    Про Лёлю и Миньку смотреть онлайн
    Cкачать фильм Про Лёлю и Миньку бесплатно
    Про Лёлю и Миньку скачать торрент в хорошем качестве
    Про Лёлю и Миньку смотреть онлайн бесплатно в хорошем качестве
    Вы не можете начинать темы
    Вы не можете отвечать на сообщения
    Вы не можете редактировать свои сообщения
    Вы не можете удалять свои сообщения
    Вы не можете голосовать в опросах
    Вы не можете прикреплять файлы к сообщениям
    Вы можете скачивать файлы
    Про Лёлю и Миньку [2019, Семейный, детский, WEB-DL 1080p] [КиноПоиск HD] смотреть онлайн, скачать торрент picoco.icu