Всегда рабочее зеркало без VPN и Proxy просто перед .vidak.icu напиши любое слово или цифру, Пример http://h2a1.vidak.icu

MVO

Лицензия

1 сезон

1

1 сезон

iTunes

1 сезон

13

1 сезон

Deluxe

pack

Рекомендуем

Repack

30

ВАЖНО

RePack

MK11

RePack

jed

RePack

fifa19

RePack

RDR2

RePack

NEED FOR SPEED™ PAYBACK

Кинопоиск HD

6 сезон

 Острые козырьки 6 сезон

Все сериалы

все сериалы на PB.wtf

RePack

FAR CRY 5
  
Magnet ссылка

Дюна / Dune (Дени Вильнёв) [2021, Фантастика, драма, приключения, WEBRip-AVC] [Ukr DUB] pb.wtf

Дюна через торрент pb.wtf

Размер: 1.92 GB | Добавлен: 8 мес. назад | Торрент скачан:103 раза
Смотреть онлайн Дюна | Скачать    Ребята, помогите собрать деньги на оплату серверов!!!

20-10-2021 17:43 Дюна Скачать торрент  

Дюна / Dune

✦ Год выпуска: 2021
✦ Страна: США, Канада, Венгрия
✦ Жанр: Фантастика, драма, приключения
✦ Продолжительность: 02:28:56
✦ Перевод: Украинский (дублированный) Line
✦ Субтитры: eng

✦ Режиссер: Дени Вильнёв

✦ В ролях: Тимоти Шаламе, Ребекка Фергюсон (II), Оскар Айзек, Джош Бролин, Джейсон Момоа, Зендея, Стеллан Скарсгард, Хавьер Бардем, Дэйв Батиста, Шарлотта Рэмплинг

✦ Описание: Наследник знаменитого дома Атрейдесов Пол отправляется вместе с семьей на одну из самых опасных планет во Вселенной — Арракис. Здесь нет ничего, кроме песка, палящего солнца, гигантских чудовищ и основной причины межгалактических конфликтов — невероятно ценного ресурса, который называется меланж. В результате захвата власти Пол вынужден бежать и скрываться, и это становится началом его эпического путешествия. Враждебный мир Арракиса приготовил для него множество тяжелых испытаний, но только тот, кто готов взглянуть в глаза своему страху, достоин стать избранным.

rating

✦ Качество: WEBRip-AVC
✦ Формат: MKV
✦ Видео: 1024x414 at 25.000 fps, [email protected], ~1650 kbps
✦ Аудио: AC3, 48.0 kHz, 2 ch, 192 kb/s - Ukr DUB
скриншот   скриншот   скриншот   скриншот   скриншот   скриншот  
General
Unique ID : 204274386907360115852806503170571499313 (0x99ADD0DC4EAC513192B5D6C54AD3F731)
Complete name : G:\Dune.2021.WEBRip-AVC.[Ukr DUB]___.mkv
Format : Matroska
Format version : Version 4
File size : 1.92 GiB
Duration : 2 h 28 min
Overall bit rate : 1 842 kb/s
Movie name : Dune.2021.WEBRip-AVC.[Ukr DUB]___
Encoded date : UTC 2021-10-20 17:36:56
Writing application : mkvmerge v6.1.0 ('Old Devil') built on Mar 2 2013 14:32:37
Writing library : libebml v1.3.0 + libmatroska v1.4.0

Video
ID : 1
Format : AVC
Format/Info : Advanced Video Codec
Format profile : [email protected]
Format settings : CABAC / 10 Ref Frames
Format settings, CABAC : Yes
Format settings, Reference : 10 frames
Codec ID : V_MPEG4/ISO/AVC
Duration : 2 h 28 min
Bit rate : 1 650 kb/s
Width : 1 024 pixels
Height : 414 pixels
Display aspect ratio : 2.473
Frame rate mode : Constant
Frame rate : 25.000 FPS
Color space : YUV
Chroma subsampling : 4:2:0
Bit depth : 8 bits
Scan type : Progressive
Bits/(Pixel*Frame) : 0.156
Stream size : 1.68 GiB (88%)
Title : Dune.2021.WEBRip-AVC.[Ukr DUB]___
Writing library : x264 core 164 r3075+55M 97d28bb t_mod_New [(8 & 10)[email protected] X86_64]
Encoding settings : cabac=1 / ref=10 / deblock=1:-2:-1 / analyse=0x3:0x133 / me=umh / subme=10 / psy=1 / fade_compensate=0.00 / psy_rd=1.00:0.08 / mixed_ref=1 / me_range=32 / chroma_me=1 / trellis=2 / 8x8dct=1 / cqm=0 / deadzone=21,11 / fast_pskip=0 / chroma_qp_offset=-3 / threads=24 / lookahead_threads=3 / sliced_threads=0 / nr=0 / decimate=0 / interlaced=0 / bluray_compat=0 / constrained_intra=0 / fgo=0 / bframes=9 / b_pyramid=2 / b_adapt=2 / b_bias=0 / direct=3 / weightb=1 / open_gop=0 / weightp=2 / keyint=250 / keyint_min=25 / scenecut=40 / intra_refresh=0 / rc_lookahead=60 / rc=2pass / mbtree=0 / bitrate=1650 / ratetol=1.0 / qcomp=0.60 / qpmin=0:0:0 / qpmax=69:69:69 / qpstep=4 / cplxblur=20.0 / qblur=0.5 / vbv_maxrate=50000 / vbv_bufsize=62500 / nal_hrd=none / filler=0 / ip_ratio=1.40 / pb_ratio=1.30 / aq=2:1.00 / aq-sensitivity=10.00 / aq-factor=1.00:1.00:1.00 / aq2=0 / aq3=0
Language : English
Default : Yes
Forced : No
Color range : Limited
Color primaries : BT.709
Transfer characteristics : BT.709
Matrix coefficients : BT.709
Statistics Tags Issue : mkvmerge v62.0.0 ('Apollo') 64-bit 2021-10-20 08:23:08 / mkvmerge v6.1.0 ('Old Devil') built on Mar 2 2013 14:32:37 2021-10-20 17:36:56
FromStats_BitRate : 1648697
FromStats_Duration : 02:28:56.160000000
FromStats_FrameCount : 223404
FromStats_StreamSize : 1841628578
Duration_Source : General_Duration

Audio
ID : 2
Format : AC-3
Format/Info : Audio Coding 3
Commercial name : Dolby Digital
Codec ID : A_AC3
Duration : 2 h 28 min
Bit rate mode : Constant
Bit rate : 192 kb/s
Channel(s) : 2 channels
Channel layout : L R
Sampling rate : 48.0 kHz
Frame rate : 31.250 FPS (1536 SPF)
Compression mode : Lossy
Stream size : 205 MiB (10%)
Title : Ukr DUB
Language : Ukrainian
Service kind : Complete Main
Default : Yes
Forced : No
Duration_Source : General_Duration

Text
ID : 3
Format : UTF-8
Codec ID : S_TEXT/UTF8
Codec ID/Info : UTF-8 Plain Text
Language : English
Default : No
Forced : No
Statistics Tags Issue : mkvmerge v62.0.0 ('Apollo') 64-bit 2021-10-20 08:23:08 / mkvmerge v6.1.0 ('Old Devil') built on Mar 2 2013 14:32:37 2021-10-20 17:36:56
FromStats_BitRate : 1
FromStats_Duration : 01:49:04.860000000
FromStats_FrameCount : 43
FromStats_StreamSize : 1104
pb.wtf



Скачать Дюна через торрент https://i116.fastpic.org/big/2021/1020/b9/2cb31aa65a34a0937e37b1139b0cabb9.jpg Скачать, смотреть онлайн Дюна бесплантно в хорошем качестве Описание: Наследник знаменитого дома Атрейдесов Пол отправляется вместе с семьей на одну из самых опасных планет во Вселенной — Арракис. ... 7.8 10 8
Info! Золотая раздача, скачанное не засчитывается.
Торрент: Зарегистрирован [2021-10-20 17:43] · скачан: 103 раз
Статус: √ проверено
Размер: 1.92 GB
Как cкачать? Как скачать Дюна через торрент | UTorrent

% Раздел Тема Автор DL S | L
3D Фильмы [ 9.52 GB ] Дюна в 3D / Dune: Part One in 3D [2021 BDRip 1080p ] Анаглиф от R.G. HD-Films slaventi-69 Скачать
2 | 0
3D Фильмы [ 10.92 GB ] Дюна 3Д / Dune: Part One / Dune 3D [2021 BDRip 1080p ] DUB [Пифагор / Кинопоиск HD] bober100 Скачать
4 | 0
3D Фильмы [ 21.37 GB ] Дюна в 3Д / Dune: Part One 3D [2021 BDRip 1080p] OverUnder / Вертикальная стереопара serega768 Скачать
1 | 0
Фильмы (BDRip, HDrip-AVC) (48-60 fps) [ 3.39 GB ] Дюна / Dune [1984 BDRip-AVC 60 FPS MVO] TimeCop Скачать
1 | 0
Ultra HD (UHD: 2K, 4K, 8K) — видео сверхвысокой чёткости [ 30.16 GB ] Дюна / Dune: Part One / Dune [2021 UHD BDRip 2160p] DUB [Пифагор / Кинопоиск HD] bober100 Скачать
1 | 0
Ultra HD (UHD: 2K, 4K, 8K) — видео сверхвысокой чёткости [ 20.74 GB ] Дюна / Dune: Part One / Dune [2021 WEB-DL-HEVC 2160p] +MVO [HDRezka Studio] bober100 Скачать
8 | 0
Фильмы 2021 (Звук TS, Cam, VO, DVO) [ 2.66 GB ] Дюна / Dune [2021 BDRip-AVC] DUB [Пифагор ] от ExKinoRay Lithuania Скачать
1 | 0


Последний раз редактировалось: killermax2013 (2021-11-29 16:50), всего редактировалось 1 раз

28-11-2019 20:33  

Отключить всю рекламу на сайте

20-10-2021 18:19 Дюна Скачать торрент  

Отличный фильм.pb.wtf



20-10-2021 19:40 Дюна Скачать торрент  

блин !!!! Привет 2я часть . не ужели не могли в одну вместить , как оригиналpb.wtf



20-10-2021 22:04 Дюна Скачать торрент  

720 будет? pb.wtf



    Дорогой пользователь! Огромная просьба, поблагодарите релизера, оцените раздачу и оставьте свои комментарий, если Вы скачали Дюна через торрент бесплатно!
    Комментировать посты могут только пользователи прошедшие не сложную регистрацию
    Показать сообщения:    

    Дюна через торрент
    Скачать бесплатно Дюна
    Дюна скачать торрент
    Дюна смотреть онлайн
    Cкачать фильм Дюна бесплатно
    Дюна скачать торрент в хорошем качестве
    Дюна смотреть онлайн бесплатно в хорошем качестве


    Вы не можете начинать темы
    Вы не можете отвечать на сообщения
    Вы не можете редактировать свои сообщения
    Вы не можете удалять свои сообщения
    Вы не можете голосовать в опросах
    Вы не можете прикреплять файлы к сообщениям
    Вы можете скачивать файлы