Всегда рабочее зеркало без VPN и Proxy просто перед .vidak.icu напиши любое слово или цифру, Пример http://nhsq.vidak.icu

Лицензия

MVO

1 сезон

1

1 сезон

iTunes

1 сезон

13

1 сезон

Deluxe

pack

Рекомендуем

Repack

30

ВАЖНО

RePack

MK11

RePack

jed

RePack

fifa19

RePack

RDR2

RePack

NEED FOR SPEED™ PAYBACK

Кинопоиск HD

6 сезон

 Острые козырьки 6 сезон

Все сериалы

все сериалы на PB.wtf

RePack

FAR CRY 5
  
Magnet ссылка

Паранормальное явление: Ближайшая родня / Paranormal Activity: Next of Kin (Уильям Юбэнк) [2021, Ужасы, WEB-DLRip-AVC] DVO [Pazl Voice] от ExKinoRay pb.wtf

Смотреть онлайн Паранормальное явление: Ближайшая родня | Скачать    Ребята, помогите собрать деньги на оплату серверов!!!

02-11-2021 18:56 Паранормальное явление: Ближайшая родня Скачать торрент  


Паранормальное явление: Ближайшая родня / Paranormal Activity: Next of Kin
Информация о фильме:
Название: Паранормальное явление: Ближайшая родня
Оригинальное название: Paranormal Activity: Next of Kin
Год выхода: 2021
Жанр: Ужасы
Режиссер: Уильям Юбэнк

В ролях: Эмили Бейдер, Роланд Бак, Кайли Зион, Том Ноуики, Alexa Shae Niziak, Ганнер Райт, Джилл Андре, Дэн Липперт, Эмералд Роуз Салливан, Нора О Доннелл

Описание: Главная героиня истории — Марго, юная девушка, которая собирается снять документалку про замкнутую в себе общину, где выросла её биологическая мать. Марго хочет прикоснуться к своим корням, но, как оказывается, местные жители на досуге предпочитают поклоняться демону.



Страна: США
Студия: Blumhouse Productions. Paramount Players
Продолжительность: 01:38:25
Перевод: Любительский (двухголосый, закадровый) - Pazl Voice



Информация о файле:
Кодек: AVC
Формат: MKV
Качество: WEB-DLRip-AVC
Видео: MPEG-4 AVC, 1024x426, 24.000 fps, 1980 kbps
Аудио RU: AC3, 6 ch, 48 kHz, 448 kbps
Аудио EN: AC3, 6 ch, 48 kHz, 448 kbps
Субтитры: Английские



x264 info: frame I:648 Avg QP:14.13 size: 47744
x264 info: frame P:39801 Avg QP:17.41 size: 18588
x264 info: frame B:101269 Avg QP:19.22 size: 6800
x264 info: consecutive B-frames: 6.2% 6.3% 11.7% 30.9% 12.7% 23.2% 3.8% 2.2% 0.7% 0.6% 1.5%
General
Unique ID : 41143983367290424667792112277562956411 (0x1EF40AFF6A92E02EDBC9DADC02E99A7B)
Complete name : D:uTorrentРипы wolf1245Paranormal Activity.Next of Kin.2021.DVO.Pazl.[wolf1245.ExKinoRay].mkv
Format : Matroska
Format version : Version 4
File size : 1.98 GiB
Duration : 1 h 38 min
Overall bit rate : 2 875 kb/s
Movie name : Paranormal Activity.Next of Kin.2021.DVO.Pazl.[wolf1245.ExKinoRay]
Encoded date : UTC 2021-11-02 16:51:40
Writing application : mkvmerge v62.0.0 ('Apollo') 64-bit
Writing library : libebml v1.4.2 + libmatroska v1.6.4
Video
ID : 1
Format : AVC
Format/Info : Advanced Video Codec
Format profile : [email protected]
Format settings : CABAC / 12 Ref Frames
Format settings, CABAC : Yes
Format settings, Reference frames : 12 frames
Codec ID : V_MPEG4/ISO/AVC
Duration : 1 h 38 min
Bit rate : 1 980 kb/s
Width : 1 024 pixels
Height : 426 pixels
Display aspect ratio : 2.40:1
Frame rate mode : Constant
Frame rate : 24.000 FPS
Color space : YUV
Chroma subsampling : 4:2:0
Bit depth : 8 bits
Scan type : Progressive
Bits/(Pixel*Frame) : 0.189
Stream size : 1.36 GiB (69%)
Title : -=[wolf1245.ExKinoRay]=-
Writing library : x264 core 161 r3020 d198931
Encoding settings : cabac=1 / ref=12 / deblock=1:-2:-2 / analyse=0x3:0x133 / me=umh / subme=10 / psy=1 / psy_rd=1.05:0.15 / mixed_ref=1 / me_range=32 / chroma_me=1 / trellis=2 / 8x8dct=1 / cqm=0 / deadzone=21,11 / fast_pskip=1 / chroma_qp_offset=-3 / threads=10 / lookahead_threads=2 / sliced_threads=0 / nr=0 / decimate=0 / interlaced=0 / bluray_compat=0 / constrained_intra=0 / bframes=10 / b_pyramid=2 / b_adapt=2 / b_bias=0 / direct=3 / weightb=1 / open_gop=0 / weightp=2 / keyint=240 / keyint_min=24 / scenecut=40 / intra_refresh=0 / rc_lookahead=60 / rc=2pass / mbtree=0 / bitrate=1980 / ratetol=1.0 / qcomp=0.60 / qpmin=0 / qpmax=69 / qpstep=4 / cplxblur=20.0 / qblur=0.5 / vbv_maxrate=50000 / vbv_bufsize=62500 / nal_hrd=none / filler=0 / ip_ratio=1.40 / pb_ratio=1.30 / aq=3:0.80
Language : English
Default : Yes
Forced : No
Color range : Limited
Color primaries : BT.709
Transfer characteristics : BT.709
Matrix coefficients : BT.709
Audio #1
ID : 2
Format : AC-3
Format/Info : Audio Coding 3
Commercial name : Dolby Digital
Codec ID : A_AC3
Duration : 1 h 38 min
Bit rate mode : Constant
Bit rate : 448 kb/s
Channel(s) : 6 channels
Channel layout : L R C LFE Ls Rs
Sampling rate : 48.0 kHz
Frame rate : 31.250 FPS (1536 SPF)
Compression mode : Lossy
Stream size : 315 MiB (16%)
Title : DVO | Pazl Voice
Language : Russian
Service kind : Complete Main
Default : Yes
Forced : No
Audio #2
ID : 3
Format : AC-3
Format/Info : Audio Coding 3
Commercial name : Dolby Digital
Codec ID : A_AC3
Duration : 1 h 38 min
Bit rate mode : Constant
Bit rate : 448 kb/s
Channel(s) : 6 channels
Channel layout : L R C LFE Ls Rs
Sampling rate : 48.0 kHz
Frame rate : 31.250 FPS (1536 SPF)
Compression mode : Lossy
Stream size : 315 MiB (16%)
Title : Original
Language : English
Service kind : Complete Main
Default : No
Forced : No
Text #1
ID : 4
Format : UTF-8
Codec ID : S_TEXT/UTF8
Codec ID/Info : UTF-8 Plain Text
Duration : 1 h 31 min
Bit rate : 48 b/s
Count of elements : 1111
Stream size : 32.2 KiB (0%)
Language : English
Default : No
Forced : No
Text #2
ID : 5
Format : UTF-8
Codec ID : S_TEXT/UTF8
Codec ID/Info : UTF-8 Plain Text
Duration : 1 h 33 min
Bit rate : 58 b/s
Count of elements : 1386
Stream size : 40.4 KiB (0%)
Title : SDH
Language : English
Default : No
Forced : No
Релиз от:
Автор релиза:
pb.wtf



Скачать
Чтобы иметь возможность скачивать с Торрент Трекера, нужно Зарегистрироваться

Как скачивать  ·  Рейтинг и ограничения

28-11-2019 20:33  

Отключить вcю реклaмy на сайте

    Дорогой пользователь! Огромная просьба, поблагодарите релизера, оцените раздачу и оставьте свои комментарий, если Вы скачали Паранормальное явление: Ближайшая родня через торрент бесплатно!
    Комментировать посты могут только пользователи прошедшие не сложную регистрацию
    Показать сообщения:    

    Паранормальное явление: Ближайшая родня через торрент
    Скачать бесплатно Паранормальное явление: Ближайшая родня
    Паранормальное явление: Ближайшая родня скачать торрент
    Паранормальное явление: Ближайшая родня смотреть онлайн
    Cкачать фильм Паранормальное явление: Ближайшая родня бесплатно
    Паранормальное явление: Ближайшая родня скачать торрент в хорошем качестве
    Паранормальное явление: Ближайшая родня смотреть онлайн бесплатно в хорошем качестве


    Вы не можете начинать темы
    Вы не можете отвечать на сообщения
    Вы не можете редактировать свои сообщения
    Вы не можете удалять свои сообщения
    Вы не можете голосовать в опросах
    Вы не можете прикреплять файлы к сообщениям
    Вы не можете скачивать файлы