Всегда рабочее зеркало без VPN и Proxy просто перед .vidak.icu напиши любое слово или цифру, Пример http://4ond.vidak.icu

MVO

2 сезон

2 сезон

1

1 сезон

iTunes

2 сезон

13

1 сезон

Deluxe

pack

Рекомендуем

Пиратка

30

ВАЖНО

RePack

MK11

RePack

jed

RePack

fifa19

RePack

RDR2

RePack

NEED FOR SPEED™ PAYBACK

Кинопоиск HD

6 сезон

 Острые козырьки 6 сезон

Все сериалы

все сериалы на PB.wtf

RePack

FAR CRY 5

Anonymous, нам критически не хватает 5601 руб. на оплату серверов и переферии за Апрель, помоги нам пожалуйста, вся надежда только на тебя. В благодарность мы отключим тебе всю рекламу на сайте!

×
  
Magnet ссылка

Шан-Чи и легенда десяти колец / Shang-Chi and the Legend of the Ten Rings (Дестин Дэниел Креттон) [2021, Фантастика, фэнтези, боевик, приключения, UHD WEB-DL-HEVC 2160p, (IMAX Edition)] DUB [Невафильм] pb.wtf

Шан-Чи и легенда десяти колец через торрент pb.wtf

Раздают: 5 [ 0 KB/s ]
Размер: 16.86 GB | Добавлен: 6 мес. назад | Торрент скачан:805 раз
Смотреть онлайн Шан-Чи и легенда десяти колец | Скачать    Ребята, помогите собрать деньги на оплату серверов!!!

12-11-2021 13:36 Шан-Чи и легенда десяти колец Скачать торрент  

Шан-Чи и легенда десяти колец
Shang-Chi and the Legend of the Ten Rings

Год выпуска: 2021
Страна: США, Австралия
Выпущено: Walt Disney Pictures, Marvel Studios, Fox Studios Australia
Жанр: Фантастика, фэнтези, боевик, приключения
Продолжительность: 02:12:20
Перевод: Дублированный | Невафильм
Субтитры: Русские (Forced, Full), английские

Режиссер: Дестин Дэниел Креттон

rating

В ролях: Симу Лю, Тони Люн Чу Вай, Аквафина, Мишель Йео, Флориан Мунтяну, Ронни Чиэн, Чэнь Фала, Даллас Джеймс Лью, Чжан Мэнъэр, Тим Рот, Бенедикт Вонг, Бен Кингсли

Описание: Благодаря изнуряющим тренировкам и жесткому воспитанию отца Шан-Чи достиг небывалых высот в боевых искусствах, но выбрал не ту жизнь, которую уготовил для него родитель. Работая простым парковщиком в Сан-Франциско, Шан-Чи сталкивается с призраками прошлого и вместе с подругой Кэти оказывается втянут в водоворот фантастических событий, связанных с таинственной организацией «Десять колец»

Качество: UHD WEB-DL-HEVC 2160p | IMAX Edition
Формат: MKV

Видео: 3840x2160 at 23.976 fps, MPEG-H HEVC HDR Video, ~ 16600 kbps avg
Аудио #01: 48 kHz, E-AC3, 5.1, 448 Kbps | Дублированный | Невафильм | RUS |
Аудио #02: 48 kHz, AC3, 5.1, 448 Kbps | Дублированный | Невафильм | RUS |
Аудио #03: 48 kHz, E-AC3+Atmos, 5.1, 768 Kbps | Оригинал | ENG |
скриншот  скриншот  скриншот  

скриншот  скриншот  скриншот  

General
Unique ID : 291498657921389801349671206394645096315 (0xDB4C99728988B054803CA4B836BEA77B)
Complete name : E:VideoShang-Chi.and.the.Legend.of.the.Ten.Rings.2021.IMAX.WEB-DL.2160p.HDR.seleZen.mkv
Format : Matroska
Format version : Version 4
File size : 16.9 GiB
Duration : 2 h 12 min
Overall bit rate : 18.2 Mb/s
Movie name : Shang-Chi and the Legend of the Ten Rings 2021 from seleZen
Encoded date : UTC 2021-11-12 12:27:35
Writing application : mkvmerge v59.0.0 ('Shining Star') 64-bit
Writing library : libebml v1.4.2 + libmatroska v1.6.4

Video
ID : 1
Format : HEVC
Format/Info : High Efficiency Video Coding
Format profile : Main 10@L5@High
HDR format : SMPTE ST 2086, HDR10 compatible
Codec ID : V_MPEGH/ISO/HEVC
Duration : 2 h 12 min
Bit rate : 16.6 Mb/s
Width : 3 840 pixels
Height : 2 160 pixels
Display aspect ratio : 16:9
Frame rate mode : Constant
Frame rate : 23.976 (24000/1001) FPS
Color space : YUV
Chroma subsampling : 4:2:0
Bit depth : 10 bits
Bits/(Pixel*Frame) : 0.083
Stream size : 15.3 GiB (91%)
Language : English
Default : Yes
Forced : No
Color range : Limited
Color primaries : BT.2020
Transfer characteristics : PQ
Matrix coefficients : BT.2020 non-constant
Mastering display color primaries : Display P3
Mastering display luminance : min: 0.0000 cd/m2, max: 1000 cd/m2

Audio #1
ID : 2
Format : E-AC-3
Format/Info : Enhanced AC-3
Commercial name : Dolby Digital Plus
Codec ID : A_EAC3
Duration : 2 h 12 min
Bit rate mode : Constant
Bit rate : 448 kb/s
Channel(s) : 6 channels
Channel layout : L R C LFE Ls Rs
Sampling rate : 48.0 kHz
Frame rate : 31.250 FPS (1536 SPF)
Compression mode : Lossy
Stream size : 425 MiB (2%)
Title : Dub [Nevafilm]
Language : Russian
Service kind : Complete Main
Default : Yes
Forced : Yes

Audio #2
ID : 3
Format : AC-3
Format/Info : Audio Coding 3
Commercial name : Dolby Digital
Codec ID : A_AC3
Duration : 2 h 12 min
Bit rate mode : Constant
Bit rate : 448 kb/s
Channel(s) : 6 channels
Channel layout : L R C LFE Ls Rs
Sampling rate : 48.0 kHz
Frame rate : 31.250 FPS (1536 SPF)
Compression mode : Lossy
Stream size : 425 MiB (2%)
Title : Dub [Nevafilm]
Language : Russian
Service kind : Complete Main
Default : No
Forced : No

Audio #3
ID : 4
Format : E-AC-3 JOC
Format/Info : Enhanced AC-3 with Joint Object Coding
Commercial name : Dolby Digital Plus with Dolby Atmos
Codec ID : A_EAC3
Duration : 2 h 12 min
Bit rate mode : Constant
Bit rate : 768 kb/s
Channel(s) : 6 channels
Channel layout : L R C LFE Ls Rs
Sampling rate : 48.0 kHz
Frame rate : 31.250 FPS (1536 SPF)
Compression mode : Lossy
Stream size : 727 MiB (4%)
Title : Original
Language : English
Service kind : Complete Main
Default : No
Forced : No
Complexity index : 16
Number of dynamic objects : 15
Bed channel count : 1 channel
Bed channel configuration : LFE

Text #1
ID : 5
Format : UTF-8
Codec ID : S_TEXT/UTF8
Codec ID/Info : UTF-8 Plain Text
Duration : 2 h 8 min
Bit rate : 7 b/s
Count of elements : 168
Stream size : 6.98 KiB (0%)
Title : Forced
Language : Russian
Default : Yes
Forced : Yes

Text #2
ID : 6
Format : UTF-8
Codec ID : S_TEXT/UTF8
Codec ID/Info : UTF-8 Plain Text
Duration : 2 h 11 min
Bit rate : 59 b/s
Count of elements : 1121
Stream size : 56.9 KiB (0%)
Title : Full
Language : Russian
Default : No
Forced : No

Text #3
ID : 7
Format : UTF-8
Codec ID : S_TEXT/UTF8
Codec ID/Info : UTF-8 Plain Text
Duration : 1 h 55 min
Bit rate : 5 b/s
Count of elements : 188
Stream size : 4.97 KiB (0%)
Title : Forced
Language : English
Default : No
Forced : No

Text #4
ID : 8
Format : UTF-8
Codec ID : S_TEXT/UTF8
Codec ID/Info : UTF-8 Plain Text
Duration : 2 h 10 min
Bit rate : 38 b/s
Count of elements : 1302
Stream size : 36.9 KiB (0%)
Title : Full
Language : English
Default : No
Forced : No

Text #5
ID : 9
Format : UTF-8
Codec ID : S_TEXT/UTF8
Codec ID/Info : UTF-8 Plain Text
Duration : 2 h 11 min
Bit rate : 51 b/s
Count of elements : 1850
Stream size : 49.2 KiB (0%)
Title : SDH
Language : English
Default : No
Forced : No

Text #6
ID : 10
Format : UTF-8
Codec ID : S_TEXT/UTF8
Codec ID/Info : UTF-8 Plain Text
Duration : 2 h 12 min
Bit rate : 76 b/s
Count of elements : 1897
Stream size : 74.1 KiB (0%)
Title : Commentary
Language : English
Default : No
Forced : No

Text #7
ID : 11
Format : UTF-8
Codec ID : S_TEXT/UTF8
Codec ID/Info : UTF-8 Plain Text
Duration : 2 h 12 min
Bit rate : 82 b/s
Count of elements : 2017
Stream size : 80.1 KiB (0%)
Title : Commentary-SDH
Language : English
Default : No
Forced : No

Menu
00:00:00.000 : :Chapter 01
00:03:52.803 : :Chapter 02
00:09:28.930 : :Chapter 03
00:16:17.130 : :Chapter 04
00:22:47.436 : :Chapter 05
00:31:59.613 : :Chapter 06
00:42:49.429 : :Chapter 07
00:52:21.000 : :Chapter 08
00:56:51.270 : :Chapter 09
01:00:34.951 : :Chapter 10
01:08:46.067 : :Chapter 11
01:15:54.995 : :Chapter 12
01:19:51.231 : :Chapter 13
01:29:49.621 : :Chapter 14
01:36:45.745 : :Chapter 15
01:47:00.568 : :Chapter 16
01:55:25.238 : :Chapter 17
02:00:07.187 : :Chapter 18
02:01:46.077 : :Chapter 19
02:04:08.803 : :Chapter 20
02:10:39.193 : :Chapter 21

pb.wtf



Скачать Шан-Чи и легенда десяти колец через торрент https://b.radikal.ru/b04/2111/e2/7de431e03bf9.jpg Скачать, смотреть онлайн Шан-Чи и легенда десяти колец бесплантно в хорошем качестве Описание: Благодаря изнуряющим тренировкам и жесткому воспитанию отца Шан-Чи достиг небывалых высот в боевых искусствах, но выбрал не ту ... 9.8 10 24
Info! Золотая раздача, скачанное не засчитывается.
Торрент: Зарегистрирован [2021-11-12 13:36] · скачан: 805 раз
Статус: √ проверено
Размер: 16.86 GB
Как cкачать? Как скачать Шан-Чи и легенда десяти колец через торрент | UTorrent

% Раздел Тема Автор DL S | L
3D Фильмы [ 11.71 GB ] Шан-Чи и легенда десяти колец в 3Д / Shang-Chi and the Legend of the Ten Rings 3D [2021 BDRip 1080p ] DUB [Невафильм] bober100 Скачать
2 | 0
3D Фильмы [ 18.78 GB ] Шан-Чи и легенда десяти колец в 3Д / Shang-Chi and the Legend of the Ten Rings 3D [2021 BDRip 1080p] OverUnder / Вертикальная стереопара serega768 Скачать
2 | 0
Фильмы [HD 720p, 1080p] (Хороший звук DUB, MVO) [ 12.51 GB ] Шан-Чи и легенда десяти колец / Shang-Chi and the Legend of the Ten Rings [2021 BDRip 1080p] DUB [Невафильм] bober100 Скачать
9 | 0
Фильмы (WEB-DL 720p, 1080p) [ 8.04 GB ] Шан-Чи и легенда десяти колец / Shang-Chi and the Legend of the Ten Rings [2021 WEB-DL 1080p ] DUB [Невафильм] bober100 Скачать
9 | 0
Фильмы [HD 720p, 1080p] (Хороший звук DUB, MVO) [ 4.48 GB ] Шан-Чи и легенда десяти колец / Shang-Chi and the Legend of the Ten Rings [2021 BDRip 1080p] + [Ukr DUB] killermax2013 Скачать
12 | 0
Фильмы 2021 [DVDrip, WEB-DLRip, HDrip] (DUB, MVO) [ 1.43 GB ] Шан-Чи и легенда десяти колец / Shang-Chi and the Legend of the Ten Rings [2021 BDRip-AVC] Dub [КиноПоиск HD] sokol_ok Скачать
54 | 1
Фильмы 2021 [DVDrip, WEB-DLRip, HDrip] (DUB, MVO) [ 1.42 GB ] Шан-Чи и легенда десяти колец / Shang-Chi and the Legend of the Ten Rings [2021 WEB-DLRip-AVC] [Локализованный видеоряд] Dub [КиноПоиск HD] sokol_ok Скачать
80 | 0

28-11-2019 20:33  

Отключить всю рекламу на сайте

16-11-2021 17:38 Шан-Чи и легенда десяти колец Скачать торрент  

нормальное кино, качество хорошее, да и звук тожpb.wtf



19-11-2021 07:51 Шан-Чи и легенда десяти колец Скачать торрент  

а можно скрины где по светлее места?
просто в последнее время скачиваю 4К и по сравнению с фул hd темноватые.... и тут похоже так же...
можете добавить где яркие краски светлый фон а то все темное... чтобы понять везде так тусклое или только в этих местах ? чтоб зря не скачать тусклое кинцоpb.wtf



19-11-2021 18:26 Шан-Чи и легенда десяти колец Скачать торрент  

если вы старше 14 лет, скорее всего не понравится, для детей и подростковpb.wtf



23-11-2021 20:02 Шан-Чи и легенда десяти колец Скачать торрент  

мне больше 14 и тоже отлично зашел .
приятная жвачка для мозга. Красивая сказочка без напрягов .pb.wtf



    Дорогой пользователь! Огромная просьба, поблагодарите релизера, оцените раздачу и оставьте свои комментарий, если Вы скачали Шан-Чи и легенда десяти колец через торрент бесплатно!
    Комментировать посты могут только пользователи прошедшие не сложную регистрацию
    Показать сообщения:    

    Шан-Чи и легенда десяти колец через торрент
    Скачать бесплатно Шан-Чи и легенда десяти колец
    Шан-Чи и легенда десяти колец скачать торрент
    Шан-Чи и легенда десяти колец смотреть онлайн
    Cкачать фильм Шан-Чи и легенда десяти колец бесплатно
    Шан-Чи и легенда десяти колец скачать торрент в хорошем качестве
    Шан-Чи и легенда десяти колец смотреть онлайн бесплатно в хорошем качестве


    Вы не можете начинать темы
    Вы не можете отвечать на сообщения
    Вы не можете редактировать свои сообщения
    Вы не можете удалять свои сообщения
    Вы не можете голосовать в опросах
    Вы не можете прикреплять файлы к сообщениям
    Вы можете скачивать файлы