Доктор Стрэндж

Лицензия

Добыча

Дубляж

Уэнсдэй

1 сезон

Тор

Дубляж

В эфире

Дубляж

Там, где раки поют

MVO

Властелин колец

1 сезон

Deluxe

pack

Рекомендуем

30

Пиратка

ВАЖНО

ВАЖНО

Ghostwire

Пиратка

jed

RePack

nioh2

RePack

RDR2

RePack

NEED FOR SPEED™ PAYBACK

RePack

скачать торрент

Кинопоиск HD

Острые козырьки 6 сезон

6 сезон

FAR CRY 6

RePack

скачать торрент

Лицензия

скачать торрент

MVO

1

1 сезон

скачать торрент

1 сезон

скачать торрент

Лицензия

  

Хороший, плохой, коп / Copshop (Джо Карнахан) [2021, Боевик, триллер, криминал, WEB-DL 1080p] Дубляж [iTunes] +MVO (rus, ukr) [HDRezka]

Хороший, плохой, коп через торрент pb.wtf

Раздают: 3 [ 0 KB/s ]
Размер: 8.02 GB | Добавлен: 1 год назад | Торрент скачан:436 раз
Смотреть онлайн | Скачать   

16-10-2021 03:39 Хороший, плохой, коп Скачать торрент  

Хороший, плохой, коп
Copshop

Год выпуска: 2021
Страна: США
Выпущено: G-BASE, Raven Capital Management, Sculptor Media, WarParty Films, Zero Gravity Management
Жанр: Боевик, триллер, криминал
Продолжительность: 01:47:40
Перевод(ы):
#1: Дублированный | iTunes
#2: Профессиональный многоголосый | HDRezka
Субтитры: Русские (Forced, full), украинские (Forced), английские

Режиссер: Джо Карнахан

rating

В ролях: Джерард Батлер, Фрэнк Грилло, Алексис Лодер, Тоби Хасс, Чад Л. Коулмэн, Райан О’Нан, Хосе Пабло Кантильо, Каиви Лайман, Роберт Уокер Браншод, Трэйси Боннер

Описание: Небольшой городок в Неваде. Во время разгона свадебной драки молодая полицейская Валери Янг получает по лицу от заезжего хлыща. Только его определяют за решётку в местный полицейский участок, как в дежурных копов на пустынной дороге чуть не врезается на машине какой-то пьянчуга. Его сажают в другую камеру, и он оказался тут неспроста. Скоро прежде тихий полицейский участок станет местом жестокого противостояния, а Валери придётся принимать непростые решения.

Качество: WEB-DL 1080p
Формат: MKV

Видео: MPEG-4 AVC, 1920x800, 10.0 Mbit/s, 23.976 fps
Аудио #01: 48 kHz, AC3, 5.1, 384 Kbps | Дублированный | iTunes | RUS |
Аудио #02: 48 kHz, AC3, 5.1, 448 Kbps | Профессиональный многоголосый | HDRezka | RUS |
Аудио #03: 48 kHz, AC3, 5.1, 384 Kbps | Профессиональный многоголосый | HDRezka | UKR |
Аудио #04: 48 kHz, E-AC3, 5.1, 640 Kbps | Оригинал | ENG |
скриншот  скриншот  скриншот  скриншот  скриншот  

General
Unique ID : 336930530248375675062742392893763749742 (0xFD7A75B169CBCF86272B6C07EDA8076E)
Complete name : E:VideoCopshop.2021.D.MVO.WEB-DL.1080p.seleZen.mkv
Format : Matroska
Format version : Version 4
File size : 8.02 GiB
Duration : 1 h 47 min
Overall bit rate : 10.7 Mb/s
Movie name : Copshop 2021 from seleZen
Encoded date : UTC 2021-11-18 20:33:57
Writing application : mkvmerge v59.0.0 ('Shining Star') 64-bit
Writing library : libebml v1.4.2 + libmatroska v1.6.4

Video
ID : 1
Format : AVC
Format/Info : Advanced Video Codec
Format profile : [email protected]
Format settings : CABAC / 4 Ref Frames
Format settings, CABAC : Yes
Format settings, Reference frames : 4 frames
Codec ID : V_MPEG4/ISO/AVC
Duration : 1 h 47 min
Bit rate mode : Constant
Bit rate : 8 809 kb/s
Nominal bit rate : 10 000 kb/s
Width : 1 920 pixels
Height : 800 pixels
Display aspect ratio : 2.40:1
Frame rate mode : Constant
Frame rate : 23.976 (24000/1001) FPS
Color space : YUV
Chroma subsampling : 4:2:0
Bit depth : 8 bits
Scan type : Progressive
Bits/(Pixel*Frame) : 0.239
Stream size : 6.62 GiB (83%)
Language : English
Default : Yes
Forced : No
Color range : Limited
Color primaries : BT.709
Transfer characteristics : BT.709
Matrix coefficients : BT.709

Audio #1
ID : 2
Format : AC-3
Format/Info : Audio Coding 3
Commercial name : Dolby Digital
Codec ID : A_AC3
Duration : 1 h 47 min
Bit rate mode : Constant
Bit rate : 384 kb/s
Channel(s) : 6 channels
Channel layout : L R C LFE Ls Rs
Sampling rate : 48.0 kHz
Frame rate : 31.250 FPS (1536 SPF)
Compression mode : Lossy
Stream size : 296 MiB (4%)
Title : Дубляж [iTunes]
Language : Russian
Service kind : Complete Main
Default : Yes
Forced : Yes

Audio #2
ID : 3
Format : AC-3
Format/Info : Audio Coding 3
Commercial name : Dolby Digital
Codec ID : A_AC3
Duration : 1 h 47 min
Bit rate mode : Constant
Bit rate : 448 kb/s
Channel(s) : 6 channels
Channel layout : L R C LFE Ls Rs
Sampling rate : 48.0 kHz
Frame rate : 31.250 FPS (1536 SPF)
Compression mode : Lossy
Stream size : 345 MiB (4%)
Title : MVO [HDRezka]
Language : Russian
Service kind : Complete Main
Default : No
Forced : No

Audio #3
ID : 4
Format : AC-3
Format/Info : Audio Coding 3
Commercial name : Dolby Digital
Codec ID : A_AC3
Duration : 1 h 47 min
Bit rate mode : Constant
Bit rate : 384 kb/s
Channel(s) : 6 channels
Channel layout : L R C LFE Ls Rs
Sampling rate : 48.0 kHz
Frame rate : 31.250 FPS (1536 SPF)
Compression mode : Lossy
Delay relative to video : 24 ms
Stream size : 296 MiB (4%)
Title : MVO [DniproFilm/HDRezka]
Language : Ukrainian
Service kind : Complete Main
Default : No
Forced : No

Audio #4
ID : 5
Format : E-AC-3
Format/Info : Enhanced AC-3
Commercial name : Dolby Digital Plus
Codec ID : A_EAC3
Duration : 1 h 47 min
Bit rate mode : Constant
Bit rate : 640 kb/s
Channel(s) : 6 channels
Channel layout : L R C LFE Ls Rs
Sampling rate : 48.0 kHz
Frame rate : 31.250 FPS (1536 SPF)
Compression mode : Lossy
Stream size : 493 MiB (6%)
Title : Original
Language : English
Service kind : Complete Main
Default : No
Forced : No

Text #1
ID : 6
Format : UTF-8
Codec ID : S_TEXT/UTF8
Codec ID/Info : UTF-8 Plain Text
Duration : 1 h 40 min
Bit rate : 3 b/s
Count of elements : 57
Stream size : 2.71 KiB (0%)
Title : Forced [HDRezka]
Language : Russian
Default : No
Forced : No

Text #2
ID : 7
Format : UTF-8
Codec ID : S_TEXT/UTF8
Codec ID/Info : UTF-8 Plain Text
Duration : 1 h 40 min
Bit rate : 90 b/s
Count of elements : 1656
Stream size : 66.9 KiB (0%)
Title : Full [MENINSUB]
Language : Russian
Default : No
Forced : No

Text #3
ID : 8
Format : UTF-8
Codec ID : S_TEXT/UTF8
Codec ID/Info : UTF-8 Plain Text
Duration : 1 h 18 min
Bit rate : 1 b/s
Count of elements : 26
Stream size : 1.08 KiB (0%)
Title : Forced [DniproFilm/HDRezka]
Language : Ukrainian
Default : No
Forced : No

Text #4
ID : 9
Format : UTF-8
Codec ID : S_TEXT/UTF8
Codec ID/Info : UTF-8 Plain Text
Duration : 1 h 41 min
Bit rate : 58 b/s
Count of elements : 1651
Stream size : 43.4 KiB (0%)
Title : Full
Language : English
Default : No
Forced : No

Text #5
ID : 10
Format : UTF-8
Codec ID : S_TEXT/UTF8
Codec ID/Info : UTF-8 Plain Text
Duration : 1 h 46 min
Bit rate : 71 b/s
Count of elements : 2178
Stream size : 55.5 KiB (0%)
Title : SDH
Language : English
Default : No
Forced : No




Скачать Хороший, плохой, коп через торрент https://st-kp-yandex-net.translate.goog/images/film_iphone/iphone360_1404360.jpg Скачать, смотреть онлайн Хороший, плохой, коп бесплантно в хорошем качестве Описание: Небольшой городок в Неваде. Во время разгона свадебной драки молодая полицейская Валери Янг получает по лицу от заезжего хлыща. ... 9.2 10 24
Торрент: Зарегистрирован [2021-11-18 22:02] · скачан: 436 раз
Статус: √ проверено
Размер: 8.02 GB
Как cкачать? Как скачать Хороший, плохой, коп через торрент | UTorrent

% Раздел Тема Автор DL S | L
Ultra HD (UHD: 2K, 4K, 8K) [ 49.77 GB ] Хороший, плохой, коп / Copshop | iTunes | 2160p bober100 Скачать
3 | 0
Фильмы [HD 720p, 1080p] (Хороший звук DUB, MVO) [ 5.03 GB ] Хороший, плохой, коп / Copshop | iTunes | 720p bober100 Скачать
1 | 0
Фильмы 2021 [DVDrip, WEB-DLRip, HDrip] (DUB, MVO) [ 1.46 GB ] Хороший, плохой, коп / Copshop | iTunes | BDRip bober100 Скачать
1 | 0
Фильмы 2021 [DVDrip, WEB-DLRip, HDrip] (DUB, MVO) [ 1.42 GB ] Хороший, плохой, коп / Copshop | Лицензия | BDRip Twi7ter Скачать
13 | 0
Фильмы 2021 [DVDrip, WEB-DLRip, HDrip] (DUB, MVO) [ 746 MB ] Хороший, плохой, коп / Copshop | iTunes | BDRip bober100 Скачать
1 | 0
Фильмы [HD 720p, 1080p] (Хороший звук DUB, MVO) [ 13.2 GB ] Хороший, плохой, коп / Copshop | iTunes | 1080p bober100 Скачать
2 | 0
Фильмы 2021 [DVDrip, WEB-DLRip, HDrip] (DUB, MVO) [ 2.36 GB ] Хороший, плохой, коп / Copshop | iTunes | DLRip-AVC bober100 Скачать
2 | 0



Последний раз редактировалось: bober100 (2021-11-18 22:33), всего редактировалось 4 раз(а)

28-11-2019 20:33  


Отключить вcю реклaмy на сайте, в т.ч. и в плеере онлайн просмотра!

16-10-2021 20:04 Хороший, плохой, коп Скачать торрент  

Вполне не плохо, смотреть можно!



17-10-2021 11:30 Хороший, плохой, коп Скачать торрент  

Полная ерунда, 2 из 5ти. Набор штампов и болтовни.



19-11-2021 03:44 Хороший, плохой, коп Скачать торрент  

одноразовый проходнячок, время убить



26-11-2021 21:48 Хороший, плохой, коп Скачать торрент  

ну 6 из 10 можно натянуть с натяжкой,
в конце дичь, фемки победили



    Дорогой пользователь! Огромная просьба, поблагодарите релизера, оцените раздачу и оставьте свои комментарий, если Вы скачали Хороший, плохой, коп через торрент бесплатно!!
    Комментировать посты могут только пользователи прошедшие не сложную регистрацию
    Показать сообщения:    


    Хороший, плохой, коп через торрент
    Скачать бесплатно Хороший, плохой, коп
    Хороший, плохой, коп скачать торрент
    Хороший, плохой, коп смотреть онлайн
    Cкачать фильм Хороший, плохой, коп бесплатно
    Хороший, плохой, коп скачать торрент в хорошем качестве
    Хороший, плохой, коп смотреть онлайн бесплатно в хорошем качестве
    Вы не можете начинать темы
    Вы не можете отвечать на сообщения
    Вы не можете редактировать свои сообщения
    Вы не можете удалять свои сообщения
    Вы не можете голосовать в опросах
    Вы не можете прикреплять файлы к сообщениям
    Вы можете скачивать файлы
    Хороший, плохой, коп / Copshop [2021, Боевик, триллер, криминал, WEB-DL 1080p] Дубляж [iTunes] +MVO [HDRezka] смотреть онлайн, скачать торрент picoco.icu