Всегда рабочее зеркало без VPN и Proxy просто перед .vidak.icu напиши любое слово или цифру, Пример http://apac.vidak.icu

MVO

2 сезон

1 сезон

1

1 сезон

iTunes

2 сезон

13

1 сезон

Deluxe

pack

Рекомендуем

Пиратка

30

ВАЖНО

RePack

MK11

RePack

jed

RePack

fifa19

RePack

RDR2

RePack

NEED FOR SPEED™ PAYBACK

Кинопоиск HD

6 сезон

 Острые козырьки 6 сезон

Все сериалы

все сериалы на PB.wtf

RePack

FAR CRY 5

Anonymous, нам критически не хватает 5601 руб. на оплату серверов и переферии за Апрель, помоги нам пожалуйста, вся надежда только на тебя. В благодарность мы отключим тебе всю рекламу на сайте!

×
  
Magnet ссылка

Ворчун / Mielensäpahoittaja / The Grump (Доме Карукоски) [2014, комедия, драма, DVDRip-AVC] [VO] (ETV+ / Е. Моисеенко) pb.wtf

Ворчун через торрент pb.wtf

Раздают: 1 [ 0 KB/s ]
Размер: 1.01 GB | Добавлен: 5 мес. 27 д. назад | Торрент скачан:81 раз
Смотреть онлайн Ворчун | Скачать    Ребята, помогите собрать деньги на оплату серверов!!!

27-11-2021 20:03 Ворчун Скачать торрент  

Ворчун / Mielensäpahoittaja / The Grump Год выпуска: 2014
Страна: Финляндия, Исландия
Жанр: комедия, драма
Продолжительность: 01:38:16
Перевод: Профессиональный (одноголосый) Евгений Моисеенко (телеканал ETV+)
Субтитры: русские (Professor)
Режиссер: Доме Карукоски / Dome Karukoski
В ролях: Антти Литья, Петра Фрэй, Мари Перанкоски, Иикка Форсс, Виктор Древицкий, Алина Томникова, Янне Реинкаинен, Тимо Лавикайнен, Кари Кетонен
Описание: Удивительно трогательная история о конфликте поколений и необходимости находить общий язык с близкими людьми. Пожилой ворчун постоянно проживает на севере Финляндии, занимается хозяйством, но в один момент оказывается абсолютно один из-за серьёзной болезни своей супруги. И так случается, что по состоянию здоровья ему надо ехать в большой город. Но к этой встрече ни готовы ни сам старик, ни современная цивилизация. Всю жизнь проживавший в своём доме и сажавший картошку герой Антти Литья, сталкивается с бешенным миром вечно спешащих куда-то людей. Человек старой закалки не понимает этой суеты, не умеет пользоваться бытовыми приборами и гаджетами и многое просто не способен принять. Это заводит его в комичные ситуации, но старик и не собирается меняться, подстраиваться, создавая постоянные конфликты с близкими ему людьми. В 2014 году в Финляндии "Ворчун" стал самым популярным фильмом по количеству просмотров и вторым по количеству просмотров фильмом в Финляндии за последние 25 лет.

rating

Качество видео: DVDRip
Формат видео: MKV
Видео: AVC, 720х304, 2.35:1, 25.000 FPS, 1 197 kb/s
Аудио: AAC, 44.1 kHz, 126 kb/s, 2 channels (русский)
Аудио: AAC, 48.0 kHz, 144 kb/s, 2 channels (финский)
Формат субтитров: softsub (SSA/ASS)
General
Unique ID : 48781131056302891724239709113058124999 (0x24B2E7733E9625DE0D403EF5C0F0E4C7)
Complete name : Mielensapahoittaja.2014.DVDRip.x264.mkv
Format : Matroska
Format version : Version 4 / Version 2
File size : 1.01 GiB
Duration : 1 h 38 min
Overall bit rate : 1 470 kb/s
Encoded date : UTC 2017-02-04 20:31:39
Writing application : mkvmerge v9.8.0 ('Kuglblids') 64bit
Writing library : libebml v1.3.4 + libmatroska v1.4.5 / Lavf57.25.100

Video
ID : 1
Format : AVC
Format/Info : Advanced Video Codec
Format profile : High@L3.1
Format settings, CABAC : Yes
Format settings, ReFrames : 8 frames
Codec ID : V_MPEG4/ISO/AVC
Duration : 1 h 38 min
Bit rate : 1 197 kb/s
Width : 720 pixels
Height : 304 pixels
Display aspect ratio : 2.35:1
Frame rate mode : Constant
Frame rate : 25.000 FPS
Color space : YUV
Chroma subsampling : 4:2:0
Bit depth : 8 bits
Scan type : Progressive
Bits/(Pixel*Frame) : 0.219
Stream size : 840 MiB (81%)
Writing library : x264 core 133 r2334 a3ac64b
Encoding settings : cabac=1 / ref=8 / deblock=1:0:0 / analyse=0x3:0x113 / me=umh / subme=8 / psy=1 / psy_rd=1.00:0.15 / mixed_ref=1 / me_range=16 / chroma_me=1 / trellis=1 / 8x8dct=1 / cqm=0 / deadzone=21,11 / fast_pskip=1 / chroma_qp_offset=-3 / threads=6 / lookahead_threads=1 / sliced_threads=0 / nr=0 / decimate=1 / interlaced=0 / bluray_compat=0 / constrained_intra=0 / bframes=3 / b_pyramid=2 / b_adapt=2 / b_bias=0 / direct=3 / weightb=1 / open_gop=0 / weightp=2 / keyint=250 / keyint_min=25 / scenecut=40 / intra_refresh=0 / rc_lookahead=50 / rc=2pass / mbtree=1 / bitrate=1197 / ratetol=1.0 / qcomp=0.60 / qpmin=0 / qpmax=69 / qpstep=4 / cplxblur=20.0 / qblur=0.5 / ip_ratio=1.40 / aq=1:1.00
Default : Yes
Forced : No
Color range : Limited
Color primaries : BT.709
Transfer characteristics : BT.709
Matrix coefficients : BT.709

Audio #1
ID : 2
Format : AAC
Format/Info : Advanced Audio Codec
Format profile : LC
Codec ID : A_AAC
Duration : 1 h 38 min
Bit rate : 126 kb/s
Channel(s) : 2 channels
Channel positions : Front: L R
Sampling rate : 44.1 kHz
Frame rate : 43.066 FPS (1024 spf)
Compression mode : Lossy
Delay relative to video : 1 s 300 ms
Stream size : 88.2 MiB (9%)
Language : Russian
Default : Yes
Forced : No

Audio #2
ID : 3
Format : AAC
Format/Info : Advanced Audio Codec
Format profile : LC
Codec ID : A_AAC
Duration : 1 h 38 min
Bit rate : 144 kb/s
Channel(s) : 2 channels
Channel positions : Front: L R
Sampling rate : 48.0 kHz
Frame rate : 46.875 FPS (1024 spf)
Compression mode : Lossy
Delay relative to video : 9 ms
Stream size : 103 MiB (10%)
Language : Finnish
Default : No
Forced : No

Text
ID : 4
Format : ASS
Codec ID : S_TEXT/ASS
Codec ID/Info : Advanced Sub Station Alpha
Duration : 1 h 33 min
Bit rate : 97 b/s
Count of elements : 689
Compression mode : Lossless
Stream size : 66.5 KiB (0%)
Language : Russian
Default : Yes
Forced : No
скриншот  скриншот  скриншот  
pb.wtf



Скачать Ворчун через торрент http://s018.radikal.ru/i525/1612/e8/be2e64858118.jpg Скачать, смотреть онлайн Ворчун бесплантно в хорошем качестве Описание: Удивительно трогательная история о конфликте поколений и необходимости находить общий язык с близкими людьми. Пожилой ворчун ... 10 10 8
Торрент: Зарегистрирован [2021-11-27 20:03] · скачан: 81 раз
Статус: √ проверено
Размер: 1.01 GB
Как cкачать? Как скачать Ворчун через торрент | UTorrent

28-11-2019 20:33  

Отключить всю рекламу на сайте

28-11-2021 14:54 Ворчун Скачать торрент  

а будет многоголосый или дубляж?pb.wtf
Kkillermax2013 писал(а):

Год выпуска: 2014 ! раз до сих пор нет то и не будет уже



    Дорогой пользователь! Огромная просьба, поблагодарите релизера, оцените раздачу и оставьте свои комментарий, если Вы скачали Ворчун через торрент бесплатно!
    Комментировать посты могут только пользователи прошедшие не сложную регистрацию
    Показать сообщения:    

    Ворчун через торрент
    Скачать бесплатно Ворчун
    Ворчун скачать торрент
    Ворчун смотреть онлайн
    Cкачать фильм Ворчун бесплатно
    Ворчун скачать торрент в хорошем качестве
    Ворчун смотреть онлайн бесплатно в хорошем качестве


    Вы не можете начинать темы
    Вы не можете отвечать на сообщения
    Вы не можете редактировать свои сообщения
    Вы не можете удалять свои сообщения
    Вы не можете голосовать в опросах
    Вы не можете прикреплять файлы к сообщениям
    Вы можете скачивать файлы