Всегда рабочее зеркало без VPN и Proxy просто перед .vidak.icu напиши любое слово или цифру, Пример http://ctgn.vidak.icu

MVO

Лицензия

1 сезон

1

1 сезон

iTunes

1 сезон

13

1 сезон

Deluxe

pack

Рекомендуем

Пиратка

30

ВАЖНО

RePack

MK11

RePack

jed

RePack

fifa19

RePack

RDR2

RePack

NEED FOR SPEED™ PAYBACK

Кинопоиск HD

6 сезон

 Острые козырьки 6 сезон

Все сериалы

все сериалы на PB.wtf

RePack

FAR CRY 5

Anonymous, нам критически не хватает 2100 руб. на оплату серверов и переферии за МАЙ, помоги нам пожалуйста, вся надежда только на тебя. В благодарность мы отключим тебе всю рекламу на сайте!

×
  
Magnet ссылка

Универ. 10 лет спустя / Сезон: 1 / Серии: 1-12 из 12 (Сергей Черников) [2021, Комедия, WEBRip] pb.wtf

Универ. 10 лет спустя через торрент pb.wtf

Раздают: 3 [ 0 KB/s ]
Размер: 6.81 GB | Добавлен: 6 мес. назад | Торрент скачан:214 раз
Смотреть онлайн Универ. 10 лет спустя | Скачать    Ребята, помогите собрать деньги на оплату серверов!!!

06-12-2021 18:54 Универ. 10 лет спустя Скачать торрент  

Универ. 10 лет спустя
Год выпуска: 2021
Страна: Россия
Жанр: Комедия
Продолжительность: ~ 00:45:00
Субтитры: отсутствуют

Режиссер: Сергей Черников



В ролях: Арарат Кещян, Станислав Ярушин, Анна Кузина, Екатерина Молоховская, Настасья Самбурская, Анна Хилькевич, Александр Мартынов, Сергей Пиоро, Мария Чернолихова, Алексей Аникин, Анатолий Белый, Алексей Серебряков, Артём Шевченко, Таисия Котова, Анастасия Драголюб

Описание: В центре сюжета четыре пары: Антон и Кристина, Маша и Валя, Майкл и Варя, Яна. После событий последней серии «Новой общаги» проходит 10 лет. Герои выросли, покинули общагу. У них появились семьи, работа. И как следствие другие, более взрослые проблемы. Майкл переживает «кризис среднего возраста». Он потерял работу, вынужден сидеть дома и воспитывать двух дочерей. Антон сначала лишился Кристины, а потом и состояния отца. И теперь жаждет вернуть все обратно. Маша решает, что им с Валей пора заводить детей. Но как это сделать, если Валя против? Яна мать-одиночка. Посвятив себя работе, она думает, что упустила воспитание сына. И начинает с маниакальным упорством искать для него отца. Хотя герои разъехались, и теперь не живут в одном блоке, они по-прежнему общаются, дружат и помогают друг другу.

Качество: WEBRip
Формат: AVI

Видео: XviD, ~ 1600 Кбит/с, 720x400, 25 кадр/с
Аудио: 48.0 kHz, AC3 Dolby Digital, 2/0 (L,R) ch, ~ 192 kbps
скриншот  скриншот  скриншот  скриншот  скриншот  

General
Complete name : H:\fiiles x\Универ. 10 лет спустя.2021.WEB-DLRip.Files-x\02. Универ. 10 лет спустя.2021.WEB-DLRip.Files-x.avi
Format : AVI
Format/Info : Audio Video Interleave
File size : 609 MiB
Duration : 47mn 34s
Overall bit rate : 1 789 Kbps
Writing application : VirtualDubMod 1.5.10.3 | www.virtualdub-fr.org || (build 2550/release)
Writing library : VirtualDubMod build 2550/release

Video
ID : 0
Format : MPEG-4 Visual
Format profile : Advanced Simple@L5
Format settings, BVOP : 1
Format settings, QPel : No
Format settings, GMC : No warppoints
Format settings, Matrix : Custom
Codec ID : XVID
Codec ID/Hint : XviD
Duration : 47mn 34s
Bit rate : 1 587 Kbps
Width : 720 pixels
Height : 400 pixels
Display aspect ratio : 16:9
Frame rate : 25.000 fps
Color space : YUV
Chroma subsampling : 4:2:0
Bit depth : 8 bits
Scan type : Progressive
Compression mode : Lossy
Bits/(Pixel*Frame) : 0.220
Stream size : 540 MiB (89%)
Writing library : XviD 73

Audio
ID : 1
Format : AC-3
Format/Info : Audio Coding 3
Mode extension : CM (complete main)
Codec ID : 2000
Duration : 47mn 34s
Bit rate mode : Constant
Bit rate : 192 Kbps
Channel(s) : 2 channels
Channel positions : Front: L R
Sampling rate : 48.0 KHz
Bit depth : 16 bits
Compression mode : Lossy
Stream size : 65.3 MiB (11%)
Alignment : Split accross interleaves
Interleave, duration : 40 ms (1.00 video frame)
Interleave, preload duration : 500 ms

Когда раздача ведётся путём добавления новых серий, при каждом добавлении создётся новый торрент. Чтобы начать докачку новой серии, пользователям необходимо сделать следующее:
(1) остановить скачивание,
(2) удалить старый торрент у себя из клиента (старые серии удалять не надо),
(3) скачать новый торрент и запустить его у себя в клиенте вместо старого, при этом указать клиенту путь в старую папку, куда и должно происходить скачивание новых серий.
Ваш клиент при этом должен произвести хеширование (проверку) старой папки (если не производит сам - помогите ему сделать это), и будет докачивать только те серии, которых у вас ещё нет. Старые серии при этом не удаляются, а продолжают раздаваться!
Eсли вы уже удалили старые серии, то предотвратить повторную закачку старых серий можно, отжав галочку в соответсвующих местах при запуске нового торрента. По возможности, желательно не удалять старые серии как можно дольше, чтобы релизёр не столько продолжал раздавать старые серии, а смог сконцентрироваться на новых.

pb.wtf



Скачать Универ. 10 лет спустя через торрент https://c.radikal.ru/c29/2112/a2/5b3c26cbedff.jpg Скачать, смотреть онлайн Универ. 10 лет спустя бесплантно в хорошем качестве Описание: В центре сюжета четыре пары: Антон и Кристина, Маша и Валя, Майкл и Варя, Яна. После событий последней серии «Новой общаги» ... 7.9 10 13
Info! Золотая раздача, скачанное не засчитывается.
Торрент: Зарегистрирован [2021-12-25 15:01] · скачан: 214 раз
Статус: √ проверено
Размер: 6.81 GB
Как cкачать? Как скачать Универ. 10 лет спустя через торрент | UTorrent

% Раздел Тема Автор DL S | L
TNT serials [ 41.5 GB ] Универ. 10 лет спустя / Сезон: 1 / Серии: 1-12 из 12 [2021 HDTV 1080i] bober100 Скачать
1 | 0
TNT serials [ 7 GB ] Универ. 10 лет спустя / Сезон: 1 / Серии: 1-12 из 12 [2021 SATRip] bober100 Скачать
1 | 0
TNT serials [ 6.83 GB ] Универ. 10 лет спустя / Сезон: 1 / Серии: 1-12 из 12 [2021 WEBRip-AVC] bober100 Скачать
1 | 0
TNT serials [ 17.75 GB ] Универ. 10 лет спустя / Сезон: 1 / Серии: 1-12 из 12 [2021 WEBRip 1080p] bober100 Скачать
2 | 0

28-11-2019 20:33  

Отключить всю рекламу на сайте

19-01-2022 03:05 Универ. 10 лет спустя Скачать торрент  

позорище. такое выкладывать грех.pb.wtf



    Дорогой пользователь! Огромная просьба, поблагодарите релизера, оцените раздачу и оставьте свои комментарий, если Вы скачали Универ. 10 лет спустя через торрент бесплатно!
    Комментировать посты могут только пользователи прошедшие не сложную регистрацию
    Показать сообщения:    

    Универ. 10 лет спустя через торрент
    Скачать бесплатно Универ. 10 лет спустя
    Универ. 10 лет спустя скачать торрент
    Универ. 10 лет спустя смотреть онлайн
    Cкачать фильм Универ. 10 лет спустя бесплатно
    Универ. 10 лет спустя скачать торрент в хорошем качестве
    Универ. 10 лет спустя смотреть онлайн бесплатно в хорошем качестве


    Вы не можете начинать темы
    Вы не можете отвечать на сообщения
    Вы не можете редактировать свои сообщения
    Вы не можете удалять свои сообщения
    Вы не можете голосовать в опросах
    Вы не можете прикреплять файлы к сообщениям
    Вы можете скачивать файлы