Всегда рабочее зеркало без VPN и Proxy просто перед .vidak.icu напиши любое слово или цифру, Пример http://5m1r.vidak.icu

MVO

Лицензия

1 сезон

1

1 сезон

iTunes

1 сезон

13

1 сезон

Deluxe

pack

Рекомендуем

Пиратка

30

ВАЖНО

RePack

MK11

RePack

jed

RePack

fifa19

RePack

RDR2

RePack

NEED FOR SPEED™ PAYBACK

Кинопоиск HD

6 сезон

 Острые козырьки 6 сезон

Все сериалы

все сериалы на PB.wtf

RePack

FAR CRY 5
  
Magnet ссылка

Паранормальное явление: Ближайшая родня / Paranormal Activity: Next of Kin (Уильям Юбэнк) [2021, Ужасы, WEB-DL 1080p] DUB [IVI] pb.wtf

Паранормальное явление: Ближайшая родня через торрент pb.wtf

Раздают: 2 [ 0 KB/s ]
Размер: 5.84 GB | Добавлен: 6 мес. назад | Торрент скачан:108 раз
Смотреть онлайн Паранормальное явление: Ближайшая родня | Скачать    Ребята, помогите собрать деньги на оплату серверов!!!

13-12-2021 19:59 Паранормальное явление: Ближайшая родня Скачать торрент  

Паранормальное явление: Ближайшая родня
Paranormal Activity: Next of Kin

Год выпуска: 2021
Страна: США
Выпущено: Blumhouse Productions. Paramount Players
Жанр: Ужасы
Продолжительность: 01:38:25
Перевод: Дублированный | IVI
Субтитры: Русские (Full), английские

Режиссер: Уильям Юбэнк

rating

В ролях: Эмили Бейдер, Роланд Бак, Кайли Зион, Том Ноуики, Alexa Shae Niziak, Ганнер Райт, Джилл Андре, Дэн Липперт, Эмералд Роуз Салливан, Нора О Доннелл

Описание: Главная героиня истории — Марго, юная девушка, которая собирается снять документалку про замкнутую в себе общину, где выросла её биологическая мать. Марго хочет прикоснуться к своим корням, но, как оказывается, местные жители на досуге предпочитают поклоняться демону.

Качество: WEB-DL 1080p
Формат: MKV

Видео: MPEG-4 AVC, 7467 Кбит/с, 1920x800, 24.000 fps
Аудио #01: 48 kHz, AC3, 5.1, 384 Kbps | Дублированный | RUS |
Аудио #02: 48 kHz, E-AC3, 5.1, 640 Kbps | Оригинал | ENG |
скриншот  скриншот  скриншот  скриншот  

Complete name : Paranormalnoe.yavlenie.Blizhayshaya.rodnya.2021.AMZN.WEB-DL.1080p.ELEKTRI4KA.UNIONGANG.mkv
Format : Matroska
Format version : Version 4
File size : 5.84 GiB
Duration : 1 h 38 min
Overall bit rate : 8 494 kb/s
Movie name : Paranormalnoe.yavlenie.Blizhayshaya.rodnya.2021.AMZN.WEB-DL.1080p.ELEKTRI4KA.UNIONGANG.
Encoded date : UTC 2021-12-12 09:03:48
Writing application : mkvmerge v8.3.0 ('Over the Horizon') 32bit
Writing library : libebml v1.3.1 + libmatroska v1.4.2

Video
ID : 1
Format : AVC
Format/Info : Advanced Video Codec
Format profile : High@L4
Format settings : CABAC / 4 Ref Frames
Format settings, CABAC : Yes
Format settings, Reference frames : 4 frames
Codec ID : V_MPEG4/ISO/AVC
Duration : 1 h 38 min
Bit rate mode : Constant
Bit rate : 7 467 kb/s
Nominal bit rate : 10 000 kb/s
Width : 1 920 pixels
Height : 800 pixels
Display aspect ratio : 2.40:1
Frame rate mode : Constant
Frame rate : 24.000 FPS
Color space : YUV
Chroma subsampling : 4:2:0
Bit depth : 8 bits
Scan type : Progressive
Bits/(Pixel*Frame) : 0.203
Stream size : 5.13 GiB (88%)
Default : Yes
Forced : No
Color range : Limited
Color primaries : BT.709
Transfer characteristics : BT.709
Matrix coefficients : BT.709

Audio #1
ID : 2
Format : AC-3
Format/Info : Audio Coding 3
Commercial name : Dolby Digital
Codec ID : A_AC3
Duration : 1 h 38 min
Bit rate mode : Constant
Bit rate : 384 kb/s
Channel(s) : 6 channels
Channel layout : L R C LFE Ls Rs
Sampling rate : 48.0 kHz
Frame rate : 31.250 FPS (1536 SPF)
Compression mode : Lossy
Stream size : 270 MiB (5%)
Title : DUB (IVI)
Language : Russian
Service kind : Complete Main
Default : Yes
Forced : Yes

Audio #2
ID : 3
Format : E-AC-3
Format/Info : Enhanced AC-3
Commercial name : Dolby Digital Plus
Codec ID : A_EAC3
Duration : 1 h 38 min
Bit rate mode : Constant
Bit rate : 640 kb/s
Channel(s) : 6 channels
Channel layout : L R C LFE Ls Rs
Sampling rate : 48.0 kHz
Frame rate : 31.250 FPS (1536 SPF)
Compression mode : Lossy
Stream size : 451 MiB (8%)
Title : Original
Language : English
Service kind : Complete Main
Default : No
Forced : No

Text #1
ID : 4
Format : UTF-8
Codec ID : S_TEXT/UTF8
Codec ID/Info : UTF-8 Plain Text
Duration : 1 h 31 min
Bit rate : 68 b/s
Count of elements : 1115
Stream size : 45.9 KiB (0%)
Title : Full [MENINSUB]
Language : Russian
Default : No
Forced : No

Text #2
ID : 5
Format : UTF-8
Codec ID : S_TEXT/UTF8
Codec ID/Info : UTF-8 Plain Text
Duration : 1 h 31 min
Bit rate : 48 b/s
Count of elements : 1111
Stream size : 32.2 KiB (0%)
Language : English
Default : No
Forced : No

Text #3
ID : 6
Format : UTF-8
Codec ID : S_TEXT/UTF8
Codec ID/Info : UTF-8 Plain Text
Duration : 1 h 33 min
Bit rate : 58 b/s
Count of elements : 1386
Stream size : 40.4 KiB (0%)
Title : SDH
Language : English
Default : No
Forced : No
pb.wtf



Скачать Паранормальное явление: Ближайшая родня через торрент https://i116.fastpic.org/big/2021/1102/79/0a37a320193ab32501dd07eea1dda579.jpg Скачать, смотреть онлайн Паранормальное явление: Ближайшая родня бесплантно в хорошем качестве Описание: Главная героиня истории — Марго, юная девушка, которая собирается снять документалку про замкнутую в себе общину, где выросла её ... 10 10 3
Торрент: Зарегистрирован [2021-12-13 19:59] · скачан: 108 раз
Статус: √ проверено
Размер: 5.84 GB
Как cкачать? Как скачать Паранормальное явление: Ближайшая родня через торрент | UTorrent

% Раздел Тема Автор DL S | L
Фильмы 2021 [DVDrip, WEB-DLRip, HDrip] (DUB, MVO) [ 1.46 GB ] Паранормальное явление: Ближайшая родня / Paranormal Activity: Next of Kin [2021 WEB-DLRip] DUB [IVI] bober100 Скачать
1 | 0
Фильмы 2021 [DVDrip, WEB-DLRip, HDrip] (DUB, MVO) [ 1.46 GB ] Паранормальное явление: Ближайшая родня / Paranormal Activity: Next of Kin [2021 WEB-DLRip] Dub [IVI] Twi7ter Скачать
29 | 4
T Фильмы 2021 (Звук TS, Cam, VO, DVO) [ 1.98 GB ] Паранормальное явление: Ближайшая родня / Paranormal Activity: Next of Kin [2021 WEB-DLRip-AVC] DVO [Pazl Voice] от ExKinoRay Lithuania Скачать
1 | 0

28-11-2019 20:33  

Отключить всю рекламу на сайте

    Дорогой пользователь! Огромная просьба, поблагодарите релизера, оцените раздачу и оставьте свои комментарий, если Вы скачали Паранормальное явление: Ближайшая родня через торрент бесплатно!
    Комментировать посты могут только пользователи прошедшие не сложную регистрацию
    Показать сообщения:    

    Паранормальное явление: Ближайшая родня через торрент
    Скачать бесплатно Паранормальное явление: Ближайшая родня
    Паранормальное явление: Ближайшая родня скачать торрент
    Паранормальное явление: Ближайшая родня смотреть онлайн
    Cкачать фильм Паранормальное явление: Ближайшая родня бесплатно
    Паранормальное явление: Ближайшая родня скачать торрент в хорошем качестве
    Паранормальное явление: Ближайшая родня смотреть онлайн бесплатно в хорошем качестве


    Вы не можете начинать темы
    Вы не можете отвечать на сообщения
    Вы не можете редактировать свои сообщения
    Вы не можете удалять свои сообщения
    Вы не можете голосовать в опросах
    Вы не можете прикреплять файлы к сообщениям
    Вы можете скачивать файлы