Всегда рабочее зеркало без VPN и Proxy просто перед .vidak.icu напиши любое слово или цифру, Пример http://nblx.vidak.icu

MVO

2 сезон

1 сезон

1

1 сезон

iTunes

2 сезон

13

1 сезон

Deluxe

pack

Рекомендуем

Пиратка

30

ВАЖНО

RePack

MK11

RePack

jed

RePack

fifa19

RePack

RDR2

RePack

NEED FOR SPEED™ PAYBACK

Кинопоиск HD

6 сезон

 Острые козырьки 6 сезон

Все сериалы

все сериалы на PB.wtf

RePack

FAR CRY 5

Anonymous, нам критически не хватает 5601 руб. на оплату серверов и переферии за Апрель, помоги нам пожалуйста, вся надежда только на тебя. В благодарность мы отключим тебе всю рекламу на сайте!

×
  
Magnet ссылка

Ваша честь / Сезон: 1 / Серии: 1-8 из 8 (Константин Статский) [2021, Триллер, драма, криминал, WEBRip-AVC] pb.wtf

Ваша честь через торрент pb.wtf

Раздают: 4 [ 0.5 KB/s ] Качают: 1 [ 0 KB/s ]
Размер: 5.52 GB | Добавлен: 3 мес. 29 д. назад | Торрент скачан:311 раз
Смотреть онлайн Ваша честь | Скачать    Ребята, помогите собрать деньги на оплату серверов!!!

03-12-2021 01:13 Ваша честь Скачать торрент  

Ваша честь
Год выпуска: 2021
Страна: Россия
Выпущено: Star Media Vision
Жанр: Триллер, драма, криминал
Продолжительность: ~ 01:00:00 серия
Перевод: Не требуется
Субтитры: отсутствуют

Режиссер: Константин Статский



В ролях: Олег Меньшиков, Владислав Миллер, Ольга Тумайкина, Дарья Урсуляк, Ростислав Бершауэр, Дмитрий Тополь, Лира Айларова, Сослан Фидаров, Кристина Кучеренко, Алексей Гаврилов, Алексей Серебряков, Кристина Веденеева, Гио Пика, Марат Гудиев, Виктория Полторак, Даниил Воробьёв, Сахат Дурсунов, Ирина Розанова, Хасбулат Татаров, Сергей Двойников, Инна Степанова, Игорь Черневич, Константин Быков, Роза Шмуклер

Описание: Михаил Романов — судья в районном суде приморского города. Романов славится своей принципиальностью и неподкупностью: закон и справедливость для него превыше всего. Однажды он узнает, что его сын Антон попал в беду. Он без спросу взял машину и сбил на ней мотоциклиста, после чего скрылся с места преступления. Романов без колебаний решает отвезти сына в полицию: он должен признаться и понести наказание. Но вскоре выясняется, что сбитый мотоциклист — Даниил Разин, сын одного из самых опасных криминальных авторитетов города, которого он собственноручно отправил за решетку год назад. Романов понимает, что признаться в аварии — означает обречь Антона на верную гибель. Сможет ли судья спасти сына и на какие жертвы он готов пойти ради этого?

Качество: WEBRip-AVC
Формат: MKV

Видео: MPEG-4 AVC, ~ 1600 Кбит/с, 1024x432, 25 кадр/с
Аудио: 48.0 kHz, AC3 Dolby Digital, 2/0 (L,R) ch, ~ 192 kbps
скриншот  скриншот  скриншот  скриншот  скриншот  

General
Unique ID : 178662078374591878397875279820807092751 (0x8669108E0103F2F29E8FE3854C1A3A0F)
Complete name : F:\Ваша честь.(2021).WEBRip.(AVC).Files-x\01.Ваша честь.(2021).WEBRip.(AVC).by.Серый1779.Files-x.mkv
Format : Matroska
Format version : Version 2
File size : 762 MiB
Duration : 59 min 23 s
Overall bit rate : 1 793 kb/s
Encoded date : UTC 2021-12-02 18:59:19
Writing application : mkvmerge v7.8.0 ('River Man') 32bit built on Apr 3 2015 12:11:22
Writing library : libebml v1.3.1 + libmatroska v1.4.2

Video
ID : 1
Format : AVC
Format/Info : Advanced Video Codec
Format profile : High@L4.1
Format settings : CABAC / 9 Ref Frames
Format settings, CABAC : Yes
Format settings, RefFrames : 9 frames
Codec ID : V_MPEG4/ISO/AVC
Duration : 59 min 23 s
Bit rate : 1 600 kb/s
Width : 1 024 pixels
Height : 432 pixels
Display aspect ratio : 2.40:1
Frame rate mode : Constant
Frame rate : 25.000 FPS
Color space : YUV
Chroma subsampling : 4:2:0
Bit depth : 8 bits
Scan type : Progressive
Bits/(Pixel*Frame) : 0.145
Stream size : 665 MiB (87%)
Writing library : x264 core 146 r2538 121396c
Encoding settings : cabac=1 / ref=9 / deblock=1:-2:-1 / analyse=0x3:0x133 / me=umh / subme=9 / psy=1 / psy_rd=1.00:0.15 / mixed_ref=1 / me_range=32 / chroma_me=1 / trellis=2 / 8x8dct=1 / cqm=0 / deadzone=21,11 / fast_pskip=0 / chroma_qp_offset=-3 / threads=18 / lookahead_threads=3 / sliced_threads=0 / nr=0 / decimate=1 / interlaced=0 / bluray_compat=0 / constrained_intra=0 / bframes=9 / b_pyramid=2 / b_adapt=2 / b_bias=0 / direct=1 / weightb=1 / open_gop=0 / weightp=2 / keyint=250 / keyint_min=25 / scenecut=40 / intra_refresh=0 / rc=2pass / mbtree=0 / bitrate=1600 / ratetol=1.0 / qcomp=0.60 / qpmin=0 / qpmax=69 / qpstep=4 / cplxblur=20.0 / qblur=0.5 / ip_ratio=1.40 / pb_ratio=1.30 / aq=2:1.00
Default : Yes
Forced : No
Color range : Limited
Color primaries : BT.709
Transfer characteristics : BT.709
Matrix coefficients : BT.709

Audio
ID : 2
Format : AC-3
Format/Info : Audio Coding 3
Format settings, Endianness : Big
Codec ID : A_AC3
Duration : 59 min 23 s
Bit rate mode : Constant
Bit rate : 192 kb/s
Channel(s) : 2 channels
Channel positions : Front: L R
Sampling rate : 48.0 kHz
Frame rate : 31.250 FPS (1536 SPF)
Bit depth : 16 bits
Compression mode : Lossy
Stream size : 81.6 MiB (11%)
Service kind : Complete Main
Default : Yes
Forced : No

Внимание! Раздача ведётся путём добавления новых серий; при каждом добавлении создаётся новый торрент.
Чтобы начать докачку новой серии, пользователям необходимо сделать следующее:
1. Остановить скачивание;
2. Удалить старый торрент у себя из клиента (старые серии удалять не надо);
3. Скачать новый торрент и запустить его у себя в клиенте вместо старого, при этом указать клиенту путь в старую папку куда и должно происходить скачивание новых серий. Ваш клиент при этом должен произвести хеширование (проверку) старой папки и будет докачивать только те серии, которых у вас ещё нет. Старые серии при этом не удаляются, а продолжают раздаваться! Eсли вы уже удалили старые серии, то предотвратить повторную закачку старых серий можно, отжав галочку в соответствующих местах при запуске нового торрента.

pb.wtf



Скачать Ваша честь через торрент https://a.radikal.ru/a38/2112/17/d417d68063eb.jpg Скачать, смотреть онлайн Ваша честь бесплантно в хорошем качестве Описание: Михаил Романов — судья в районном суде приморского города. Романов славится своей принципиальностью и неподкупностью: закон и ... 7.9 10 14
Info! Золотая раздача, скачанное не засчитывается.
Торрент: Зарегистрирован [2022-01-27 16:04] · скачан: 311 раз
Статус: √ проверено
Размер: 5.52 GB
Как cкачать? Как скачать Ваша честь через торрент | UTorrent

% Раздел Тема Автор DL S | L
Наши сериалы [ 16.22 GB ] Ваша честь / Сезон: 1 / Серии: 1-8 из 8 [2021 WEBRip 1080p] bober100 Скачать
5 | 1
Наши сериалы [ 6.2 GB ] Ваша честь / Сезон: 1 / Серии: 1-8 из 8 [2021 WEBRip] bober100 Скачать
3 | 0


Последний раз редактировалось: bober100 (2022-01-27 16:04), всего редактировалось 7 раз(а)

28-11-2019 20:33  

Отключить всю рекламу на сайте

03-12-2021 08:11 Ваша честь Скачать торрент  

Михаил Романов — судья в районном суде приморского города. Романов славится своей принципиальностью и неподкупностью))
p.s.Укажите пожалуйста правильный жанр -фэнтэзи ,кинокомикс,сказкаpb.wtf



03-12-2021 10:36 Ваша честь Скачать торрент  

адаптация одноименного сериала 2020г. с Брайаном Крэнстоном. Мда, своих идей нет совсем?pb.wtf



04-12-2021 23:47 Ваша честь Скачать торрент  

Sep-ultura писал(а):

p.s.Укажите пожалуйста правильный жанр -фэнтэзи ,кинокомикс,сказка

плюс фантастика и комедия. ну как без смеха можно произнести словосочетание принципиальность и неподкупность в отношении наших... хмм.. россиян еще не вешают за оскорбления в инетике этих ... ?pb.wtf



09-12-2021 18:09 Ваша честь Скачать торрент  

Плагиат. Посмотрите лучше оригинал.pb.wtf



19-12-2021 20:44 Ваша честь Скачать торрент  

Жалкое подобие!!! уже сами придумать не могут ничего...pb.wtf



25-12-2021 01:33 Ваша честь Скачать торрент  

VKUL2008 писал(а):

Плагиат. Посмотрите лучше оригинал.

А мне больше этот понравился!
Плагиат-это когда идею варуют ! А это ремэйк и они за это заплатили создателям оригинала и с писателем написавший это, тоже поделились-все счастливы! Мне наш ремейк больше нравится....pb.wtf



    Дорогой пользователь! Огромная просьба, поблагодарите релизера, оцените раздачу и оставьте свои комментарий, если Вы скачали Ваша честь через торрент бесплатно!
    Комментировать посты могут только пользователи прошедшие не сложную регистрацию
    Показать сообщения:    

    Ваша честь через торрент
    Скачать бесплатно Ваша честь
    Ваша честь скачать торрент
    Ваша честь смотреть онлайн
    Cкачать фильм Ваша честь бесплатно
    Ваша честь скачать торрент в хорошем качестве
    Ваша честь смотреть онлайн бесплатно в хорошем качестве


    Вы не можете начинать темы
    Вы не можете отвечать на сообщения
    Вы не можете редактировать свои сообщения
    Вы не можете удалять свои сообщения
    Вы не можете голосовать в опросах
    Вы не можете прикреплять файлы к сообщениям
    Вы можете скачивать файлы