Доктор Стрэндж

Лицензия

Добыча

Дубляж

Уэнсдэй

1 сезон

Тор

Дубляж

В эфире

Дубляж

Там, где раки поют

MVO

Властелин колец

1 сезон

Deluxe

pack

Рекомендуем

30

Пиратка

ВАЖНО

ВАЖНО

Ghostwire

Пиратка

jed

RePack

nioh2

RePack

RDR2

RePack

NEED FOR SPEED™ PAYBACK

RePack

скачать торрент

Кинопоиск HD

Острые козырьки 6 сезон

6 сезон

FAR CRY 6

RePack

скачать торрент

Лицензия

скачать торрент

MVO

1

1 сезон

скачать торрент

1 сезон

скачать торрент

Лицензия

  

Тело для Франкенштейна в 3Д / Flesh for Frankenstein 3D (Пол Моррисси, Антонио Маргерити / Paul Morrissey, Antonio Margheriti) [1973, ужасы, фантастика, эротика, BDRip, 1080p] OverUnder / Вертикальная стереопара (MVO - ТВ3)

Тело для Франкенштейна в 3Д через торрент pb.wtf

Размер: 24.23 GB | Добавлен: 11 мес. назад | Торрент скачан:9 раз
Смотреть онлайн | Скачать   

22-12-2021 05:53 Тело для Франкенштейна в 3Д Скачать торрент  

Тело для Франкенштейна / Flesh for Frankenstein(Andy Warhol's Frankenstein)

Год выпуска: 1973
Страна: США, Италия, Франция (Braunsberg Productions, Carlo Ponti Cinematografica, ...)
Жанр: ужасы, фантастика, эротика
Продолжительность: 01:35:11

Перевод: Профессиональный многоголосый закадровый (ТВ3)
Русские субтитры: нет
Режиссер: Пол Моррисси, Антонио Маргерити / Paul Morrissey, Antonio Margheriti

В ролях: Джо Даллесандро, Моника ван Вурен, Удо Кир, Арно Юргинг, Далила Ди Лаззаро, Срджан Зеленович, Николетта Элми, Марко Лиофреди, Лью Босисио, Фиорелла Масселли

Описание: Барон Франкенштейн одержим идеей мирового господства, для чего из подручных материалов он лепит «идеальных» мужчину и женщину, подчиненных только его власти, и которые, совокупившись, дали бы потомство новой формации - прирожденных рабов Франкенштейна. С девушкой у него все в порядке, но есть проблема с мужчиной - нужна подходящая голова «настоящего самца», дабы он влюбился бы в идеальную женщину с первого взгляда и тут же полез бы с ней в постель... Решив отыскать подобный экземпляр в местном публичном доме, Франкенштейн со своим помощником Отто по ошибке обезглавили не совсем того - молодого человека, готовившегося стать монахом...

Сэмпл: http://sendfile.su/1631313

Качество: BDrip, 1080p
Контейнер: MKV
Формат 3D: OverUnder / Вертикальная стереопара
Порядок ракурсов: левый ракурс первый
Видео кодек: x264
Аудио кодек: AC3
Видео: AVC / [email protected] / 23,976 fps / 1920х2160 / 34,9 Мбит/сек
Аудио: Русский / AC3 / 48 KHz / 2.0 ch / 256 Кбит/сек(MVO - ТВ3)
Аудио 2: Английский / AC3 / 48 KHz / 2.0 ch / 448 Кбит/сек

ВНИМАНИЕ ! На встроенных ТВ-плеерах работать не будет!!!

ТВ Samsung в названии которого есть надпись Ultra HD , и LG Ultra HD 800 серии, LG C6P, Xiaomi Mi TV 2, GRUNDIG VLE 8474 BL, Samsung UE48H6200AK, SUPRA STV-LC42ST960UL00 воспроизводят полные стереопары встроенными плеерами
Железные плееры на которых воспроизводятся полные стереопары:Popcorn C-200, Popcorn a-400, Dune HD Smart D1 , Dune HD DUO , Dune HD Smart H1 , Dune HD Smart B1 , Dune HD Max , Dune HD TV-303D, Dune HD TV-102, Dune HD Base 3D, Philips HMP7001, Aura HD, MECOOL BB2, Zidoo x9s, Lake I Cloud, MiBox 3
Чтобы изображение было на весь экран в плеере выставляем, если рип 1920х1600 - то выставляем 2.35:1 , если 1920х2160 - то выставляем 16:9
Общее
Уникальный идентификатор : 185875471200041672699779109521108112436 (0x8BD6504782091FF99F77D14B81D21434)
Полное имя : F:\ISO\Flesh for Frankenstein.Rip by SeRoGa00.mkv
Формат : Matroska
Версия формата : Version 2
Размер файла : 24,2 Гбайт
Продолжительность : 1 ч. 35 м.
Общий поток : 36,3 Мбит/сек
Дата кодирования : UTC 2021-12-22 04:55:04
Программа кодирования : mkvmerge v4.1.1 ('Bouncin' Back') сборка от Jul 3 2010 22:54:08
Библиотека кодирования : libebml v1.0.0 + libmatroska v1.0.0

Видео
Идентификатор : 1
Формат : AVC
Формат/Информация : Advanced Video Codec
Профиль формата : [email protected]
Параметр CABAC формата : Да
Параметр ReFrames формата : 4 кадра
Идентификатор кодека : V_MPEG4/ISO/AVC
Продолжительность : 1 ч. 35 м.
Битрейт : 34,9 Мбит/сек
Ширина : 1920 пикселей
Высота : 2160 пикселей
Соотношение сторон : 0,889
Частота кадров : 23,976 кадра/сек
Цветовое пространство : YUV
Субдискретизация насыщенности : 4:2:0
Битовая глубина : 8 бит
Тип развёртки : Прогрессивная
Бит/(Пиксели*Кадры) : 0.351
Размер потока : 23,3 Гбайт (96%)
Заголовок : Rip by SeRoGa00
Библиотека кодирования : x264 core 157 r2969 d4099dd
Настройки программы : cabac=1 / ref=4 / deblock=1:-3:-3 / analyse=0x3:0x113 / me=umh / subme=10 / psy=1 / psy_rd=1.00:0.15 / mixed_ref=1 / me_range=24 / chroma_me=1 / trellis=2 / 8x8dct=1 / cqm=0 / deadzone=21,11 / fast_pskip=1 / chroma_qp_offset=-3 / threads=12 / lookahead_threads=6 / sliced_threads=0 / nr=0 / decimate=0 / interlaced=0 / bluray_compat=0 / constrained_intra=0 / bframes=10 / b_pyramid=2 / b_adapt=2 / b_bias=0 / direct=3 / weightb=1 / open_gop=0 / weightp=2 / keyint=250 / keyint_min=23 / scenecut=40 / intra_refresh=0 / rc_lookahead=60 / rc=crf / mbtree=1 / crf=18.0 / qcomp=0.60 / qpmin=10 / qpmax=69 / qpstep=4 / vbv_maxrate=40000 / vbv_bufsize=40000 / crf_max=0.0 / nal_hrd=none / filler=0 / ip_ratio=1.40 / aq=1:1.00
Язык : English
Default : Да
Forced : Нет

Аудио #1
Идентификатор : 2
Формат : AC-3
Формат/Информация : Audio Coding 3
Расширение режима : CM (complete main)
Параметр Endianness формата : Big
Режим смешивания : Header stripping
Идентификатор кодека : A_AC3
Продолжительность : 1 ч. 35 м.
Вид битрейта : Постоянный
Битрейт : 256 Кбит/сек
Каналы : 2 канала
Расположение каналов : Front: L R
Частота : 48,0 КГц
Битовая глубина : 16 бит
Метод сжатия : С потерями
Размер потока : 175 Мбайт (1%)
Язык : Russian
Default : Да
Forced : Нет

Аудио #2
Идентификатор : 3
Формат : AC-3
Формат/Информация : Audio Coding 3
Расширение режима : CM (complete main)
Параметр Endianness формата : Big
Режим смешивания : Header stripping
Идентификатор кодека : A_AC3
Продолжительность : 1 ч. 35 м.
Вид битрейта : Постоянный
Битрейт : 448 Кбит/сек
Каналы : 2 канала
Расположение каналов : Front: L R
Частота : 48,0 КГц
Битовая глубина : 16 бит
Метод сжатия : С потерями
Размер потока : 306 Мбайт (1%)
Язык : English
Default : Нет
Forced : Нет
скриншот  

скриншот  

скриншот  

скриншот  

скриншот  

скриншот  

скриншот  

скриншот  



Скачать Тело для Франкенштейна в 3Д через торрент https://c.radikal.ru/c07/2112/b8/25d1d2a46278.png Скачать, смотреть онлайн Тело для Франкенштейна в 3Д бесплантно в хорошем качестве Описание: Барон Франкенштейн одержим идеей мирового господства, для чего из подручных материалов он лепит «идеальных» мужчину и женщину, ... 10 10 1
Торрент: Зарегистрирован [2021-12-22 05:53] · скачан: 9 раз
Статус: √ проверено
Размер: 24.23 GB
Как cкачать? Как скачать Тело для Франкенштейна в 3Д через торрент | UTorrent

28-11-2019 20:33  


Отключить вcю реклaмy на сайте, в т.ч. и в плеере онлайн просмотра!

    Дорогой пользователь! Огромная просьба, поблагодарите релизера, оцените раздачу и оставьте свои комментарий, если Вы скачали Тело для Франкенштейна в 3Д через торрент бесплатно!!
    Комментировать посты могут только пользователи прошедшие не сложную регистрацию
    Показать сообщения:    


    Тело для Франкенштейна в 3Д через торрент
    Скачать бесплатно Тело для Франкенштейна в 3Д
    Тело для Франкенштейна в 3Д скачать торрент
    Тело для Франкенштейна в 3Д смотреть онлайн
    Cкачать фильм Тело для Франкенштейна в 3Д бесплатно
    Тело для Франкенштейна в 3Д скачать торрент в хорошем качестве
    Тело для Франкенштейна в 3Д смотреть онлайн бесплатно в хорошем качестве
    Вы не можете начинать темы
    Вы не можете отвечать на сообщения
    Вы не можете редактировать свои сообщения
    Вы не можете удалять свои сообщения
    Вы не можете голосовать в опросах
    Вы не можете прикреплять файлы к сообщениям
    Вы можете скачивать файлы
    Тело для Франкенштейна в 3Д / Flesh for Frankenstein 3D [1973, ужасы, фантастика, эротика, BDRip, 1080p] OverUnder / Вертикальная стереопара смотреть онлайн, скачать торрент picoco.icu