Всегда рабочее зеркало без VPN и Proxy просто перед .vidak.icu напиши любое слово или цифру, Пример http://zegv.vidak.icu

MVO

Лицензия

1 сезон

1

1 сезон

iTunes

1 сезон

13

1 сезон

Deluxe

pack

Рекомендуем

Repack

30

ВАЖНО

RePack

MK11

RePack

jed

RePack

fifa19

RePack

RDR2

RePack

NEED FOR SPEED™ PAYBACK

Кинопоиск HD

6 сезон

 Острые козырьки 6 сезон

Все сериалы

все сериалы на PB.wtf

RePack

FAR CRY 5
  
Magnet ссылка

Дракулов (Илья Куликов) [2021, Комедия, мистика, ужасы, WEB-DLRip-AVC] [ОККО] pb.wtf

Дракулов через торрент pb.wtf

Раздают: 1 [ 0 KB/s ] Качают: 1 [ 0 KB/s ]
Размер: 1.46 GB | Добавлен: 6 мес. назад | Торрент скачан:427 раз
Смотреть онлайн Дракулов | Скачать    Ребята, помогите собрать деньги на оплату серверов!!!

21-12-2021 12:00 Дракулов Скачать торрент  

Дракулов
Год выпуска: 2021
Страна: Россия
Выпущено: Legio Felix, Peak Media, НМГ Студия
Жанр: Комедия, мистика, ужасы
Продолжительность: 01:26:45
Перевод: Не требуется | ОККО
Субтитры: отсутствуют

Режиссер: Илья Куликов



В ролях: Михаил Галустян, Денис Васильев, Татьяна Бабенкова, Алексей Золотовицкий, Александр Мартынов (IV), Надежда Сысоева, Наталья Краснова (II), Мария Лисовая, Дмитрий Блохин, Роман Попов, Иван Агапов

Описание: Российская империя. Юрист Петр Смирнов приезжает в мрачное имение загадочного графа Дракулова, чьи предки родом из далекой Трансильвании, чтобы оформить покупку дома в Москве. Граф замечает фотокарточку невесты Петра, юной Вари, и немедленно срывается проинспектировать свою новую недвижимость… Петр обеспокоен, но его бдительность усыпляют старательные служанки графа. Правда, вскоре Смирнов обнаруживает, что девушки – вурдалаки, а это значит, что и их хозяин, граф Дракулов, – опасный кровопийца! Петр сбегает из демонической усадьбы и спешит в Москву, чтобы защитить свою невесту от трехсотлетнего вампира. Помочь ему в этом – или помешать – могут лучшая подруга Вари, Соня, и ее странные кавалеры, а также сын знаменитого профессора Ван Хельсинга Вася.

Качество: WEB-DLRip-AVC
Формат: MKV

Видео: 1024x426 (2.40:1), 24 fps, MPEG-4 AVC ~ 2214 Kbps avg, 0.211 bit/pixel
Аудио: 48.0 kHz, AC3 Dolby Digital, 2/0 (L,R) ch, ~ 192 kbps
скриншот  скриншот  скриншот  скриншот  скриншот  

Общее
Уникальный идентификатор : 216140415473843929700760387379645222522 (0xA29B213CE3801F8891340F5532818E7A)
Полное имя : Drakulov.2021.WEBRip.DD.2.0.x264.MegaPeer.mkv
Формат : Matroska
Версия формата : Version 4
Размер файла : 1,46 Гбайт
Продолжительность : 1 ч. 26 м.
Общий поток : 2 404 Кбит/сек
Название фильма : Дракулов (2021) от [email protected]
Дата кодирования : UTC 2021-12-21 11:49:30
Программа кодирования : mkvmerge v15.0.0 ('Duel with the Devil') 64-bit
Библиотека кодирования : libebml v1.3.5 + libmatroska v1.4.5
Обложка : Yes
Attachments : cover.jpg

Видео
Идентификатор : 1
Формат : AVC
Формат/Информация : Advanced Video Codec
Профиль формата : [email protected]
Настройки формата : CABAC / 12 Ref Frames
Параметр CABAC формата : Да
Параметр RefFrames формата : 12 кадров
Идентификатор кодека : V_MPEG4/ISO/AVC
Продолжительность : 1 ч. 26 м.
Битрейт : 2 214 Кбит/сек
Ширина : 1 024 пикселя
Высота : 426 пикселей
Соотношение сторон : 2,40:1
Режим частоты кадров : Постоянный
Частота кадров : 24,000 кадра/сек
Цветовое пространство : YUV
Субдискретизация насыщенности : 4:2:0
Битовая глубина : 8 бит
Тип развёртки : Прогрессивная
Бит/(Пиксели*Кадры) : 0.211
Размер потока : 1,34 Гбайт (92%)
Заголовок : [email protected]
Библиотека кодирования : x264 core 161 r3018 db0d417
Настройки программы : cabac=1 / ref=12 / deblock=1:-3:-3 / analyse=0x3:0x113 / me=umh / subme=10 / psy=1 / psy_rd=1.05:0.03 / mixed_ref=1 / me_range=48 / chroma_me=1 / trellis=2 / 8x8dct=1 / cqm=0 / deadzone=21,11 / fast_pskip=0 / chroma_qp_offset=-3 / threads=13 / lookahead_threads=3 / sliced_threads=0 / nr=0 / decimate=0 / interlaced=0 / bluray_compat=0 / constrained_intra=0 / bframes=10 / b_pyramid=2 / b_adapt=2 / b_bias=0 / direct=3 / weightb=1 / open_gop=0 / weightp=2 / keyint=240 / keyint_min=24 / scenecut=40 / intra_refresh=0 / rc_lookahead=40 / rc=2pass / mbtree=0 / bitrate=2214 / ratetol=1.0 / qcomp=0.60 / qpmin=0 / qpmax=69 / qpstep=4 / cplxblur=20.0 / qblur=0.5 / vbv_maxrate=50000 / vbv_bufsize=62500 / nal_hrd=none / filler=0 / ip_ratio=1.40 / pb_ratio=1.30 / aq=1:1.10
Язык : Russian
Default : Да
Forced : Нет

Аудио
Идентификатор : 2
Формат : AC-3
Формат/Информация : Audio Coding 3
Коммерческое название : Dolby Digital
Идентификатор кодека : A_AC3
Продолжительность : 1 ч. 26 м.
Вид битрейта : Постоянный
Битрейт : 192 Кбит/сек
Каналы : 2 канала
Channel layout : L R
Частота : 48,0 КГц
Частота кадров : 31,250 кадров/сек (1536 SPF)
Метод сжатия : С потерями
Размер потока : 119 Мбайт (8%)
Заголовок : OKKO
Язык : Russian
Service kind : Complete Main
Default : Да
Forced : Да

pb.wtf



Скачать Дракулов через торрент https://i116.fastpic.org/big/2021/1221/77/a4a9825489ff754802fdc7b3e588fe77.jpg Скачать, смотреть онлайн Дракулов бесплантно в хорошем качестве Описание: Российская империя. Юрист Петр Смирнов приезжает в мрачное имение загадочного графа Дракулова, чьи предки родом из далекой ... 8.6 10 13
Торрент: Зарегистрирован [2021-12-21 12:00] · скачан: 427 раз
Статус: T временная
Размер: 1.46 GB
Как cкачать? Как скачать Дракулов через торрент | UTorrent

% Раздел Тема Автор DL S | L
T Наши фильмы (HD, WEB-DL 720p, 1080p) [ 3.14 GB ] Дракулов [2021 WEB-DL 1080p] [ОККО] bober100 Скачать
2 | 0
T Наши новые фильмы 2020 - 2022 [ 1.22 GB ] Дракулов [2021 WEB-DLRip] [ОККО] bober100 Скачать
1 | 0
? Оформление раздач (Кино, Видео и ТВ) [ 2.9 GB ] Дракула Брэма Стокера / Bram Stoker's Dracula [1992 вампиры экранизация BDRip-AVC 60 FPS ] alien2015 Скачать
1 | 0
Зарубежные сериалы [ 17.89 GB ] Дракула / Dracula / Сезон: 1 / Серии: 1-3 из 3 [2020 WEB-DL 720p] MVO [TVShows] bober100 Скачать
1 | 0
Зарубежные сериалы [ 30.42 GB ] Дракула / Dracula / Сезон: 1 / Серии: 1-3 из 3 [2020 WEB-DL 1080p] MVO [TVShows] bober100 Скачать
1 | 0
Зарубежные сериалы [ 4.55 GB ] Дракула / Dracula / Сезон: 1 / Серии: 1-3 из 3 [2020 WEB-DL 720p] MVO [Jaskier] bober100 Скачать
2 | 0
Зарубежные сериалы [ 9.27 GB ] Дракула / Dracula / Сезон: 1 / Серии: 1-3 из 3 [2020 WEB-DL 1080p] MVO [Jaskier] bober100 Скачать
1 | 0

28-11-2019 20:33  

Отключить всю рекламу на сайте

21-12-2021 15:26 Дракулов Скачать торрент  

Галустян не спасает?pb.wtf



22-12-2021 10:43 Дракулов Скачать торрент  

Это шедевр!pb.wtf



28-12-2021 16:00 Дракулов Скачать торрент  

Офигенный кинчик мне понравился. А фиговые отзывы пишут читатели брема стокера. Или фанаты копполы (терпеть не могу крестного отца, лучше славных парней скорсезе глянуть или отступники) который снял очередной нудняк 1992 года.pb.wtf



    Дорогой пользователь! Огромная просьба, поблагодарите релизера, оцените раздачу и оставьте свои комментарий, если Вы скачали Дракулов через торрент бесплатно!
    Комментировать посты могут только пользователи прошедшие не сложную регистрацию
    Показать сообщения:    

    Дракулов через торрент
    Скачать бесплатно Дракулов
    Дракулов скачать торрент
    Дракулов смотреть онлайн
    Cкачать фильм Дракулов бесплатно
    Дракулов скачать торрент в хорошем качестве
    Дракулов смотреть онлайн бесплатно в хорошем качестве


    Вы не можете начинать темы
    Вы не можете отвечать на сообщения
    Вы не можете редактировать свои сообщения
    Вы не можете удалять свои сообщения
    Вы не можете голосовать в опросах
    Вы не можете прикреплять файлы к сообщениям
    Вы можете скачивать файлы