Доктор Стрэндж

Лицензия

Добыча

Дубляж

Дом дракона

1 сезон

Тор

Дубляж

В эфире

Дубляж

Там, где раки поют

MVO

Властелин колец

1 сезон

Deluxe

pack

Рекомендуем

30

Пиратка

ВАЖНО

ВАЖНО

Ghostwire

Пиратка

jed

RePack

nioh2

RePack

RDR2

RePack

NEED FOR SPEED™ PAYBACK

RePack

скачать торрент

Кинопоиск HD

Острые козырьки 6 сезон

6 сезон

FAR CRY 6

RePack

скачать торрент

Лицензия

скачать торрент

MVO

1

1 сезон

скачать торрент

1 сезон

скачать торрент

Лицензия

  

Дюна в 3Д / Dune: Part One 3D (Дени Вильнёв / Denis Villeneuve) [2021, фантастика, боевик, драма, приключения, BDRip, 1080p] OverUnder / Вертикальная стереопара

Дюна в 3Д через торрент pb.wtf

Раздают: 1 [ 0 KB/s ]
Размер: 21.37 GB | Добавлен: 11 мес. назад | Торрент скачан:50 раз
Смотреть онлайн | Скачать   

24-12-2021 06:51 Дюна в 3Д Скачать торрент  

Дюна / Dune: Part One

Год выпуска: 2021
Страна: США, Канада, Венгрия (Legendary Pictures)
Жанр: фантастика, боевик, драма, приключения
Продолжительность: 02:35:29

Перевод: Перевод 1: Профессиональный (дублированный) Пифагор/КиноПоиск HD
Перевод 2: Профессиональный (многоголосый закадровый) Jaskier
Перевод 3: Профессиональный (многоголосый закадровый) HDRezka
Перевод 4: Авторский (одноголосый закадровый) Ю. Сербин

Русские субтитры: есть
Режиссер: Дени Вильнёв / Denis Villeneuve
В ролях: Тимоти Шаламе, Ребекка Фергюсон, Оскар Айзек, Джош Бролин, Джейсон Момоа, Зендея, Стеллан Скарсгард, Хавьер Бардем, Дэйв Батиста, Шарлотта Рэмплинг

Описание: Наследник знаменитого дома Атрейдесов Пол отправляется вместе с семьей на одну из самых опасных планет во Вселенной — Арракис. Здесь нет ничего, кроме песка, палящего солнца, гигантских чудовищ и основной причины межгалактических конфликтов — невероятно ценного ресурса, который называется меланж. В результате захвата власти Пол вынужден бежать и скрываться, и это становится началом его эпического путешествия. Враждебный мир Арракиса приготовил для него множество тяжелых испытаний, но только тот, кто готов взглянуть в глаза своему страху, достоин стать избранным.

Сэмпл: http://sendfile.su/1631558

Качество: BDrip, 1080p
Контейнер: MKV
Формат 3D: OverUnder / Вертикальная стереопара
Порядок ракурсов: левый ракурс первый
Видео кодек: x264
Аудио кодек: AC3
Видео: AVC / [email protected] / 23,976 fps / 1920х2160 / 16,7 Мбит/сек
Аудио: Русский / AC3 / 48 KHz / 5.1 ch / 448 Кбит/сек(Кинопоиск HD)
Аудио 2: Русский / AC3 / 48 KHz / 5.1 ch / 384 Кбит/сек(MVO Jaskier)
Аудио 3: Русский / AC3 / 48 KHz / 5.1 ch / 448 Кбит/сек(MVO HDRezka)
Аудио 4: Русский / AC3 / 48 KHz / 5.1 ch / 640 Кбит/сек(AVO Сербин)
Аудио 5: Английский / AC3 / 48 KHz / 5.1 ch / 448 Кбит/сек
Субтитры: Русские Форсированные

ВНИМАНИЕ ! На встроенных ТВ-плеерах работать не будет!!!

ТВ Samsung в названии которого есть надпись Ultra HD , и LG Ultra HD 800 серии, LG C6P, Xiaomi Mi TV 2, GRUNDIG VLE 8474 BL, Samsung UE48H6200AK, SUPRA STV-LC42ST960UL00 воспроизводят полные стереопары встроенными плеерами
Железные плееры на которых воспроизводятся полные стереопары:Popcorn C-200, Popcorn a-400, Dune HD Smart D1 , Dune HD DUO , Dune HD Smart H1 , Dune HD Smart B1 , Dune HD Max , Dune HD TV-303D, Dune HD TV-102, Dune HD Base 3D, Philips HMP7001, Aura HD, MECOOL BB2, Zidoo x9s, Lake I Cloud, MiBox 3
Чтобы изображение было на весь экран в плеере выставляем, если рип 1920х1600 - то выставляем 2.35:1 , если 1920х2160 - то выставляем 16:9

27.12.2021. Релиз обновлён. Английская звуковая дорожка для слепых заменена на обычную.
Желающие, скачайте заново торрент-файл.
Общее
Уникальный идентификатор : 230827022468905927443141920408775345702 (0xADA7AADE4F05166ABEFBF375B7DAC626)
Полное имя : E:\Dune Part One.Rip by SeRoGa00 (1).mkv
Формат : Matroska
Версия формата : Version 2
Размер файла : 21,4 Гбайт
Продолжительность : 2 ч. 35 м.
Общий поток : 19,7 Мбит/сек
Дата кодирования : UTC 2021-12-27 14:05:10
Программа кодирования : mkvmerge v4.9.1 ('Ich will') сборка от Jul 11 2011 23:53:15
Библиотека кодирования : libebml v1.2.1 + libmatroska v1.1.1

Видео
Идентификатор : 1
Формат : AVC
Формат/Информация : Advanced Video Codec
Профиль формата : [email protected]
Параметр CABAC формата : Да
Параметр ReFrames формата : 4 кадра
Идентификатор кодека : V_MPEG4/ISO/AVC
Продолжительность : 2 ч. 35 м.
Битрейт : 16,7 Мбит/сек
Ширина : 1920 пикселей
Высота : 2160 пикселей
Соотношение сторон : 0,889
Частота кадров : 23,976 кадра/сек
Цветовое пространство : YUV
Субдискретизация насыщенности : 4:2:0
Битовая глубина : 8 бит
Тип развёртки : Прогрессивная
Бит/(Пиксели*Кадры) : 0.168
Размер потока : 18,2 Гбайт (85%)
Заголовок : Rip by SeRoGa00
Библиотека кодирования : x264 core 157 r2969 d4099dd
Настройки программы : cabac=1 / ref=4 / deblock=1:-3:-3 / analyse=0x3:0x113 / me=umh / subme=10 / psy=1 / psy_rd=1.00:0.15 / mixed_ref=1 / me_range=24 / chroma_me=1 / trellis=2 / 8x8dct=1 / cqm=0 / deadzone=21,11 / fast_pskip=1 / chroma_qp_offset=-3 / threads=12 / lookahead_threads=6 / sliced_threads=0 / nr=0 / decimate=0 / interlaced=0 / bluray_compat=0 / constrained_intra=0 / bframes=10 / b_pyramid=2 / b_adapt=2 / b_bias=0 / direct=3 / weightb=1 / open_gop=0 / weightp=2 / keyint=250 / keyint_min=23 / scenecut=40 / intra_refresh=0 / rc_lookahead=60 / rc=crf / mbtree=1 / crf=16.5 / qcomp=0.60 / qpmin=10 / qpmax=69 / qpstep=4 / vbv_maxrate=40000 / vbv_bufsize=40000 / crf_max=0.0 / nal_hrd=none / filler=0 / ip_ratio=1.40 / aq=1:1.00
Язык : English
Default : Да
Forced : Нет

Аудио #1
Идентификатор : 2
Формат : AC-3
Формат/Информация : Audio Coding 3
Расширение режима : CM (complete main)
Параметр Endianness формата : Big
Идентификатор кодека : A_AC3
Продолжительность : 2 ч. 35 м.
Вид битрейта : Постоянный
Битрейт : 448 Кбит/сек
Каналы : 6 каналов
Расположение каналов : Front: L C R, Side: L R, LFE
Частота : 48,0 КГц
Битовая глубина : 16 бит
Метод сжатия : С потерями
Размер потока : 498 Мбайт (2%)
Заголовок : Кинопоиск HD
Язык : Russian
Default : Да
Forced : Нет

Аудио #2
Идентификатор : 3
Формат : AC-3
Формат/Информация : Audio Coding 3
Расширение режима : CM (complete main)
Параметр Endianness формата : Big
Идентификатор кодека : A_AC3
Продолжительность : 2 ч. 35 м.
Вид битрейта : Постоянный
Битрейт : 384 Кбит/сек
Каналы : 6 каналов
Расположение каналов : Front: L C R, Side: L R, LFE
Частота : 48,0 КГц
Битовая глубина : 16 бит
Метод сжатия : С потерями
Размер потока : 427 Мбайт (2%)
Заголовок : MVO Jaskier
Язык : Russian
Default : Нет
Forced : Нет

Аудио #3
Идентификатор : 4
Формат : AC-3
Формат/Информация : Audio Coding 3
Расширение режима : CM (complete main)
Параметр Endianness формата : Big
Идентификатор кодека : A_AC3
Продолжительность : 2 ч. 35 м.
Вид битрейта : Постоянный
Битрейт : 448 Кбит/сек
Каналы : 6 каналов
Расположение каналов : Front: L C R, Side: L R, LFE
Частота : 48,0 КГц
Битовая глубина : 16 бит
Метод сжатия : С потерями
Размер потока : 498 Мбайт (2%)
Заголовок : MVO HDRezka
Язык : Russian
Default : Нет
Forced : Нет

Аудио #4
Идентификатор : 5
Формат : AC-3
Формат/Информация : Audio Coding 3
Расширение режима : CM (complete main)
Параметр Endianness формата : Big
Идентификатор кодека : A_AC3
Продолжительность : 2 ч. 35 м.
Вид битрейта : Постоянный
Битрейт : 640 Кбит/сек
Каналы : 6 каналов
Расположение каналов : Front: L C R, Side: L R, LFE
Частота : 48,0 КГц
Битовая глубина : 16 бит
Метод сжатия : С потерями
Размер потока : 712 Мбайт (3%)
Заголовок : AVO Сербин
Язык : Russian
Default : Нет
Forced : Нет

Аудио #5
Идентификатор : 6
Формат : AC-3
Формат/Информация : Audio Coding 3
Расширение режима : CM (complete main)
Параметр Endianness формата : Big
Идентификатор кодека : A_AC3
Продолжительность : 2 ч. 35 м.
Вид битрейта : Постоянный
Битрейт : 640 Кбит/сек
Каналы : 6 каналов
Расположение каналов : Front: L C R, Side: L R, LFE
Частота : 48,0 КГц
Битовая глубина : 16 бит
Метод сжатия : С потерями
Размер потока : 712 Мбайт (3%)
Язык : English
Default : Нет
Forced : Нет

Текст
Идентификатор : 7
Формат : UTF-8
Идентификатор кодека : S_TEXT/UTF8
Идентификатор кодека/Информация : UTF-8 Plain Text
Default : Да
Forced : Нет

Меню
00:00:00.000 : en:00:00:00.000
00:03:16.154 : en:00:03:16.154
00:12:54.816 : en:00:12:54.816
00:22:00.736 : en:00:22:00.736
00:29:16.922 : en:00:29:16.922
00:39:10.932 : en:00:39:10.932
00:47:19.795 : en:00:47:19.795
00:56:53.493 : en:00:56:53.493
01:06:50.381 : en:01:06:50.381
01:16:44.892 : en:01:16:44.892
01:26:00.655 : en:01:26:00.655
01:36:00.380 : en:01:36:00.380
01:45:09.470 : en:01:45:09.470
01:53:50.323 : en:01:53:50.323
02:03:38.536 : en:02:03:38.536
02:12:13.342 : en:02:12:13.342
02:20:45.771 : en:02:20:45.771
02:27:27.797 : en:02:27:27.797
скриншот  

скриншот  

скриншот  

скриншот  

скриншот  

скриншот  

скриншот  

скриншот  



Скачать Дюна в 3Д через торрент https://c.radikal.ru/c22/2112/e6/28e0b1310a7c.png Скачать, смотреть онлайн Дюна в 3Д бесплантно в хорошем качестве Описание: Наследник знаменитого дома Атрейдесов Пол отправляется вместе с семьей на одну из самых опасных планет во Вселенной — Арракис. ... 10 10 4
Торрент: Зарегистрирован [2021-12-27 15:03] · скачан: 50 раз
Статус: √ проверено
Размер: 21.37 GB
Как cкачать? Как скачать Дюна в 3Д через торрент | UTorrent

28-11-2019 20:33  


Отключить вcю реклaмy на сайте, в т.ч. и в плеере онлайн просмотра!

27-12-2021 15:03 Дюна в 3Д Скачать торрент  

27.12.2021. Релиз обновлён. Английская звуковая дорожка для слепых заменена на обычную.
Желающие, скачайте заново торрент-файл.



    Дорогой пользователь! Огромная просьба, поблагодарите релизера, оцените раздачу и оставьте свои комментарий, если Вы скачали Дюна в 3Д через торрент бесплатно!!
    Комментировать посты могут только пользователи прошедшие не сложную регистрацию
    Показать сообщения:    


    Дюна в 3Д через торрент
    Скачать бесплатно Дюна в 3Д
    Дюна в 3Д скачать торрент
    Дюна в 3Д смотреть онлайн
    Cкачать фильм Дюна в 3Д бесплатно
    Дюна в 3Д скачать торрент в хорошем качестве
    Дюна в 3Д смотреть онлайн бесплатно в хорошем качестве
    Вы не можете начинать темы
    Вы не можете отвечать на сообщения
    Вы не можете редактировать свои сообщения
    Вы не можете удалять свои сообщения
    Вы не можете голосовать в опросах
    Вы не можете прикреплять файлы к сообщениям
    Вы можете скачивать файлы
    Дюна в 3Д / Dune: Part One 3D [2021, фантастика, боевик, драма, приключения, BDRip, 1080p] OverUnder / Вертикальная стереопара смотреть онлайн, скачать торрент picoco.icu