Доктор Стрэндж

Лицензия

Добыча

Дубляж

Уэнсдэй

1 сезон

Тор

Дубляж

В эфире

Дубляж

Там, где раки поют

MVO

Властелин колец

1 сезон

Deluxe

pack

Рекомендуем

30

Пиратка

ВАЖНО

ВАЖНО

Ghostwire

Пиратка

jed

RePack

nioh2

RePack

RDR2

RePack

NEED FOR SPEED™ PAYBACK

RePack

скачать торрент

Кинопоиск HD

Острые козырьки 6 сезон

6 сезон

FAR CRY 6

RePack

скачать торрент

Лицензия

скачать торрент

MVO

1

1 сезон

скачать торрент

1 сезон

скачать торрент

Лицензия

  

Здравствуй, Дедушка Мороз! (Наталия Каленова) [2021, Семейный, комедия, WEB-DL 720p] [KION]

Здравствуй, Дедушка Мороз! через торрент pb.wtf

Размер: 2.59 GB | Добавлен: 11 мес. назад | Торрент скачан:25 раз
Смотреть онлайн | Скачать   

31-12-2021 13:01 Здравствуй, Дедушка Мороз! Скачать торрент  

Здравствуй, Дедушка Мороз!
Год выпуска: 2021
Страна: Россия
Жанр: Семейный, комедия
Продолжительность: 01:23:05
Перевод: Не требуется | KION
Субтитры: отсутствуют

Режиссер: Наталия Каленова



В ролях: Виктор Логинов, Юрий Гальцев, Александр Тютрюмов, Роман Петров, Дарья Румянцева, Светлана Смирнова-Марцинкевич, Ольга Кирсанова-Миропольская, Александр Алексин, Егор Бакулин, Татьяна Яковенко

Описание: Московского журналиста отправляют готовить репортаж о работе дедов морозов в новогоднюю ночь. Облачившись в костюм и бороду главного новогоднего волшебника, он попадает домой к мальчику Саше, которому обещает исполнить его желание — вернуть папу.

Качество: WEB-DL 720p
Формат: MKV

Видео: MPEG-4 AVC, 3840 Kb/s, 1280x720, 24.000 fps
Аудио: 48 kHz, AC3 Dolby Digital, 3/2 (L, C, R, l, r) + LFE ch, ~640 Kbps
скриншот  скриншот  скриншот  скриншот  

Complete name : Zdravstvuy.Dedushka.Moroz.2021.WEB-DL.720p.ELEKTRI4KA.UNIONGANG.mkv
Format : Matroska
Format version : Version 4
File size : 2.59 GiB
Duration : 1 h 23 min
Overall bit rate mode : Constant
Overall bit rate : 4 459 kb/s
Movie name : Zdravstvuy.Dedushka.Moroz.2021.WEB-DL.720p.ELEKTRI4KA.UNIONGANG.
Encoded date : UTC 2021-12-31 09:55:55
Writing application : mkvmerge v63.0.0 ('Everything') 32-bit
Writing library : libebml v1.4.2 + libmatroska v1.6.4

Video
ID : 1
Format : AVC
Format/Info : Advanced Video Codec
Format profile : [email protected]
Format settings : 2 Ref Frames
Format settings, CABAC : No
Format settings, Reference frames : 2 frames
Codec ID : V_MPEG4/ISO/AVC
Duration : 1 h 23 min
Bit rate mode : Constant
Bit rate : 3 840 kb/s
Width : 1 280 pixels
Height : 720 pixels
Display aspect ratio : 16:9
Frame rate mode : Constant
Frame rate : 24.000 FPS
Color space : YUV
Chroma subsampling : 4:2:0
Bit depth : 8 bits
Scan type : Progressive
Bits/(Pixel*Frame) : 0.174
Stream size : 2.22 GiB (86%)
Default : Yes
Forced : No

Audio
ID : 2
Format : AC-3
Format/Info : Audio Coding 3
Commercial name : Dolby Digital
Codec ID : A_AC3
Duration : 1 h 23 min
Bit rate mode : Constant
Bit rate : 640 kb/s
Channel(s) : 6 channels
Channel layout : L R C LFE Ls Rs
Sampling rate : 48.0 kHz
Frame rate : 31.250 FPS (1536 SPF)
Compression mode : Lossy
Stream size : 380 MiB (14%)
Title : Original (KION)
Language : Russian
Service kind : Complete Main
Default : Yes
Forced : Yes




Скачать Здравствуй, Дедушка Мороз! через торрент https://d.radikal.ru/d25/2112/31/be1220ebc6a9.jpg Скачать, смотреть онлайн Здравствуй, Дедушка Мороз! бесплантно в хорошем качестве Описание: Московского журналиста отправляют готовить репортаж о работе дедов морозов в новогоднюю ночь. Облачившись в костюм и бороду ... 10 10 2
Торрент: Зарегистрирован [2021-12-31 13:01] · скачан: 25 раз
Статус: √ проверено
Размер: 2.59 GB
Как cкачать? Как скачать Здравствуй, Дедушка Мороз! через торрент | UTorrent

% Раздел Тема Автор DL S | L
Детские отечественные фильмы [ 718 MB ] Здравствуй, Дедушка Мороз! | iTunes" | DLRip "iTunes" coc900 Скачать
1 | 0
Детские отечественные фильмы [ 1.45 GB ] Здравствуй, Дедушка Мороз! | | DLRip-AVC bober100 Скачать
1 | 1
Детские отечественные фильмы [ 1.46 GB ] Здравствуй, Дедушка Мороз! | | DLRip bober100 Скачать
1 | 0
Детские отечественные фильмы [ 3.92 GB ] Здравствуй, Дедушка Мороз! | | 1080p bober100 Скачать
1 | 0

28-11-2019 20:33  


Отключить вcю реклaмy на сайте, в т.ч. и в плеере онлайн просмотра!

    Дорогой пользователь! Огромная просьба, поблагодарите релизера, оцените раздачу и оставьте свои комментарий, если Вы скачали Здравствуй, Дедушка Мороз! через торрент бесплатно!!
    Комментировать посты могут только пользователи прошедшие не сложную регистрацию
    Показать сообщения:    


    Здравствуй, Дедушка Мороз! через торрент
    Скачать бесплатно Здравствуй, Дедушка Мороз!
    Здравствуй, Дедушка Мороз! скачать торрент
    Здравствуй, Дедушка Мороз! смотреть онлайн
    Cкачать фильм Здравствуй, Дедушка Мороз! бесплатно
    Здравствуй, Дедушка Мороз! скачать торрент в хорошем качестве
    Здравствуй, Дедушка Мороз! смотреть онлайн бесплатно в хорошем качестве
    Вы не можете начинать темы
    Вы не можете отвечать на сообщения
    Вы не можете редактировать свои сообщения
    Вы не можете удалять свои сообщения
    Вы не можете голосовать в опросах
    Вы не можете прикреплять файлы к сообщениям
    Вы можете скачивать файлы
    Здравствуй, Дедушка Мороз! [2021, Семейный, комедия, WEB-DL 720p] [KION] смотреть онлайн, скачать торрент picoco.icu