Доктор Стрэндж

Лицензия

Добыча

Дубляж

Дом дракона

1 сезон

Тор

Дубляж

В эфире

Дубляж

Там, где раки поют

MVO

Властелин колец

1 сезон

Аренда ака

pack

Рекомендуем

30

Пиратка

ВАЖНО

ВАЖНО

Ghostwire

Пиратка

jed

RePack

nioh2

RePack

RDR2

RePack

NEED FOR SPEED™ PAYBACK

RePack

скачать торрент

Кинопоиск HD

Острые козырьки 6 сезон

6 сезон

FAR CRY 6

RePack

скачать торрент

Лицензия

скачать торрент

MVO

1

1 сезон

скачать торрент

1 сезон

скачать торрент

Лицензия

  

Здравствуй, Дедушка Мороз! (Наталия Каленова) [2021, Семейный, комедия, WEB-DLRip-AVC] [KION]

Здравствуй, Дедушка Мороз! через торрент pb.wtf

Размер: 1.45 GB | Добавлен: 10 мес. назад | Торрент скачан:91 раз
Смотреть онлайн | Скачать   

31-12-2021 13:07 Здравствуй, Дедушка Мороз! Скачать торрент  

Здравствуй, Дедушка Мороз!
Год выпуска: 2021
Страна: Россия
Жанр: Семейный, комедия
Продолжительность: 01:23:05
Перевод: Не требуется | KION
Субтитры: отсутствуют

Режиссер: Наталия Каленова



В ролях: Виктор Логинов, Юрий Гальцев, Александр Тютрюмов, Роман Петров, Дарья Румянцева, Светлана Смирнова-Марцинкевич, Ольга Кирсанова-Миропольская, Александр Алексин, Егор Бакулин, Татьяна Яковенко

Описание: Московского журналиста отправляют готовить репортаж о работе дедов морозов в новогоднюю ночь. Облачившись в костюм и бороду главного новогоднего волшебника, он попадает домой к мальчику Саше, которому обещает исполнить его желание — вернуть папу.

Качество: WEB-DLRip-AVC
Формат: MKV

Видео: MPEG-4 AVC, 1024x552 at 24.000 fps, [email protected], ~2120 kbps
Аудио: 48 kHz, AC3 Dolby Digital, 3/2 (L, C, R, l, r) + LFE ch, ~384 Kbps
скриншот  скриншот  скриншот  скриншот  скриншот  

x264 [info]: frame I:979 Avg QP:17.69 size: 55104
x264 [info]: frame P:33555 Avg QP:20.02 size: 21790
x264 [info]: frame B:85108 Avg QP:22.17 size: 6286

General
Unique ID : 215653273782954417236118370202718946373 (0xA23D4F4C532204C2B649F35759DDC445)
Complete name : I:Zdravstvuy.Dedushka.Moroz.2021.WEB-DLRip.x264.mkv
Format : Matroska
Format version : Version 4
File size : 1.45 GiB
Duration : 1 h 23 min
Overall bit rate : 2 505 kb/s
Movie name : Zdravstvuy.Dedushka.Moroz.2021.WEB-DL.1080p.ELEKTRI4KA.UNIONGANG.
Encoded date : UTC 2021-12-31 12:51:27
Writing application : mkvmerge v64.0.0 ('Willows') 64-bit
Writing library : libebml v1.4.2 + libmatroska v1.6.4
Cover : Yes
Attachments : cover.jpg / cover 2.jpg

Video
ID : 1
Format : AVC
Format/Info : Advanced Video Codec
Format profile : [email protected]
Format settings : CABAC / 12 Ref Frames
Format settings, CABAC : Yes
Format settings, Reference : 12 frames
Codec ID : V_MPEG4/ISO/AVC
Duration : 1 h 23 min
Bit rate : 2 120 kb/s
Width : 1 024 pixels
Height : 552 pixels
Display aspect ratio : 1.85:1
Frame rate mode : Constant
Frame rate : 24.000 FPS
Color space : YUV
Chroma subsampling : 4:2:0
Bit depth : 8 bits
Scan type : Progressive
Bits/(Pixel*Frame) : 0.156
Stream size : 1.23 GiB (85%)
Title : -=DoMiNo=-
Writing library : x264 core 164 r3079 d9a19f0
Encoding settings : cabac=1 / ref=12 / deblock=1:-2:-2 / analyse=0x3:0x133 / me=umh / subme=10 / psy=1 / psy_rd=1.00:0.15 / mixed_ref=1 / me_range=32 / chroma_me=1 / trellis=2 / 8x8dct=1 / cqm=0 / deadzone=21,11 / fast_pskip=0 / chroma_qp_offset=-3 / threads=17 / lookahead_threads=4 / sliced_threads=0 / nr=0 / decimate=0 / interlaced=0 / bluray_compat=0 / constrained_intra=0 / bframes=10 / b_pyramid=2 / b_adapt=2 / b_bias=0 / direct=3 / weightb=1 / open_gop=0 / weightp=2 / keyint=250 / keyint_min=23 / scenecut=40 / intra_refresh=0 / rc_lookahead=60 / rc=2pass / mbtree=0 / bitrate=2120 / ratetol=1.0 / qcomp=0.70 / qpmin=0 / qpmax=69 / qpstep=4 / cplxblur=20.0 / qblur=0.5 / vbv_maxrate=50000 / vbv_bufsize=62500 / nal_hrd=none / filler=0 / ip_ratio=1.20 / pb_ratio=1.30 / aq=1:0.90
Language : Russian
Default : Yes
Forced : No

Audio
ID : 2
Format : AC-3
Format/Info : Audio Coding 3
Commercial name : Dolby Digital
Codec ID : A_AC3
Duration : 1 h 23 min
Bit rate mode : Constant
Bit rate : 384 kb/s
Channel(s) : 6 channels
Channel layout : L R C LFE Ls Rs
Sampling rate : 48.0 kHz
Frame rate : 31.250 FPS (1536 SPF)
Compression mode : Lossy
Stream size : 228 MiB (15%)
Language : Russian
Service kind : Complete Main
Default : Yes
Forced : No




Скачать Здравствуй, Дедушка Мороз! через торрент https://d.radikal.ru/d25/2112/31/be1220ebc6a9.jpg Скачать, смотреть онлайн Здравствуй, Дедушка Мороз! бесплантно в хорошем качестве Описание: Московского журналиста отправляют готовить репортаж о работе дедов морозов в новогоднюю ночь. Облачившись в костюм и бороду ... 10 10 5
Торрент: Зарегистрирован [2021-12-31 13:07] · скачан: 91 раз
Статус: √ проверено
Размер: 1.45 GB
Как cкачать? Как скачать Здравствуй, Дедушка Мороз! через торрент | UTorrent

% Раздел Тема Автор DL S | L
Детские отечественные фильмы [ 718 MB ] Здравствуй, Дедушка Мороз! | iTunes" | DLRip "iTunes" coc900 Скачать
1 | 0
Детские отечественные фильмы [ 1.46 GB ] Здравствуй, Дедушка Мороз! | | DLRip bober100 Скачать
1 | 0
Детские отечественные фильмы [ 2.59 GB ] Здравствуй, Дедушка Мороз! | | 720p bober100 Скачать
1 | 0
Детские отечественные фильмы [ 3.92 GB ] Здравствуй, Дедушка Мороз! | | 1080p bober100 Скачать
1 | 0

28-11-2019 20:33  


Отключить вcю реклaмy на сайте, в т.ч. и в плеере онлайн просмотра!

    Дорогой пользователь! Огромная просьба, поблагодарите релизера, оцените раздачу и оставьте свои комментарий, если Вы скачали Здравствуй, Дедушка Мороз! через торрент бесплатно!!
    Комментировать посты могут только пользователи прошедшие не сложную регистрацию
    Показать сообщения:    


    Здравствуй, Дедушка Мороз! через торрент
    Скачать бесплатно Здравствуй, Дедушка Мороз!
    Здравствуй, Дедушка Мороз! скачать торрент
    Здравствуй, Дедушка Мороз! смотреть онлайн
    Cкачать фильм Здравствуй, Дедушка Мороз! бесплатно
    Здравствуй, Дедушка Мороз! скачать торрент в хорошем качестве
    Здравствуй, Дедушка Мороз! смотреть онлайн бесплатно в хорошем качестве
    Вы не можете начинать темы
    Вы не можете отвечать на сообщения
    Вы не можете редактировать свои сообщения
    Вы не можете удалять свои сообщения
    Вы не можете голосовать в опросах
    Вы не можете прикреплять файлы к сообщениям
    Вы можете скачивать файлы
    Здравствуй, Дедушка Мороз! [2021, Семейный, комедия, WEB-DLRip-AVC] [KION] смотреть онлайн, скачать торрент picoco.icu