Доктор Стрэндж

Лицензия

Добыча

Дубляж

Дом дракона

1 сезон

Тор

Дубляж

В эфире

Дубляж

Там, где раки поют

MVO

Властелин колец

1 сезон

GLOBAL

pack

Рекомендуем

30

Пиратка

ВАЖНО

ВАЖНО

Ghostwire

Пиратка

jed

RePack

nioh2

RePack

RDR2

RePack

NEED FOR SPEED™ PAYBACK

RePack

скачать торрент

Кинопоиск HD

Острые козырьки 6 сезон

6 сезон

FAR CRY 6

RePack

скачать торрент

Лицензия

скачать торрент

MVO

1

1 сезон

скачать торрент

1 сезон

скачать торрент

Лицензия

  

Здравствуй, Дедушка Мороз! (Наталия Каленова) [2021 г., семейный, комедия, WEB-DLRip "iTunes"]

Здравствуй, Дедушка Мороз! через торрент pb.wtf

Размер: 718 MB | Добавлен: 10 мес. назад | Торрент скачан:30 раз
Смотреть онлайн | Скачать   

01-01-2022 18:35 Здравствуй, Дедушка Мороз! Скачать торрент  

Здравствуй Дедушка Мороз!
Год выпуска: 2021
Страна: Россия / ОЛИМП
Жанр: семейный, комедия
Продолжительность: 01:23:05
Перевод: Не требуется (iTunes)

Режиссер: Наталия Каленова

rating

В ролях: Виктор Логинов, Юрий Гальцев, Александр Тютрюмов, Роман Петров, Дарья Румянцева, Светлана Смирнова-Марцинкевич, Ольга Кирсанова-Миропольская, Александр Алексин, Егор Бакулин, Татьяна Яковенко

Описание: Московского журналиста отправляют готовить репортаж о работе дедов морозов в новогоднюю ночь. Облачившись в костюм и бороду главного новогоднего волшебника, он попадает домой к мальчику Саше, которому обещает исполнить его желание — вернуть папу.

Качество: WEB-DLRip
Формат: AVI
Видео кодек: DivX
Аудио кодек: MP3
Видео: 640x344 (1.86:1), 24.000 fps, DivX Codec 4.x ~1071 kbps avg, 0.20 bit/pixel
Аудио: 48 kHz, MPEG Layer 3, 2 ch, ~128.00 kbps avg

Общее
Полное имя : G:\ФИЛЬМЫ\Здравствуй, Дедушка Мороз!.2021.WEB-DLRip.avi
Формат : AVI
Формат/Информация : Audio Video Interleave
Размер файла : 718 Мбайт
Продолжительность : 1 ч. 23 м.
Общий поток : 1 209 Кбит/сек
Программа кодирования : VirtualDubMod 1.5.10.3 | www.virtualdub-fr.org || (build 2550/release)
Библиотека кодирования : VirtualDubMod build 2550/release

Видео
Идентификатор : 0
Формат : MPEG-4 Visual
Профиль формата : Advanced [email protected]
Настройки формата : BVOP2
Параметр BVOP формата : 2
Параметр QPel формата : Нет
Параметр GMC формата : Без точки перехода
Параметр матрицы формата : Default (MPEG)
Идентификатор кодека : DIVX
Идентификатор кодека/Информация : Project Mayo
Идентификатор кодека/Подсказка : DivX 4
Продолжительность : 1 ч. 23 м.
Битрейт : 1 072 Кбит/сек
Ширина : 640 пикселей
Высота : 344 пикселя
Соотношение сторон : 1,85:1
Частота кадров : 24,000 кадра/сек
Цветовое пространство : YUV
Субдискретизация насыщенности : 4:2:0
Битовая глубина : 8 бит
Тип развёртки : Прогрессивная
Метод сжатия : С потерями
Бит/(Пиксели*Кадры) : 0.203
Размер потока : 637 Мбайт (89%)
Библиотека кодирования : XviD 1.2.1 (UTC 2008-12-04)

Аудио
Идентификатор : 1
Формат : MPEG Audio
Версия формата : Version 1
Профиль формата : Layer 3
Настройки формата : Joint stereo / MS Stereo
Идентификатор кодека : 55
Идентификатор кодека/Подсказка : MP3
Продолжительность : 1 ч. 23 м.
Вид битрейта : Постоянный
Битрейт : 128 Кбит/сек
Каналы : 2 канала
Частота : 48,0 КГц
Частота кадров : 41,667 кадра/сек (1152 SPF)
Метод сжатия : С потерями
Размер потока : 76,1 Мбайт (11%)
Выравнивание : Соединение по промежуткам
Продолжительность промежутка : 42 мс. (1,00 видеокадр)
Время предзагрузки промежутка : 504 мс.
Библиотека кодирования : LAME3.99r
Настройки программы : -m j -V 4 -q 2 -lowpass 17 -b 128

Report created by : MediaInfoLib - v21.09
Report created on : UTC 2022-01-01 17:22:14




Скачать Здравствуй, Дедушка Мороз! через торрент https://a.radikal.ru/a36/2201/49/d00718a85d6e.jpg Скачать, смотреть онлайн Здравствуй, Дедушка Мороз! бесплантно в хорошем качестве Описание: Московского журналиста отправляют готовить репортаж о работе дедов морозов в новогоднюю ночь. Облачившись в костюм и бороду ... 9.8 10 6
Торрент: Зарегистрирован [2022-01-01 18:35] · скачан: 30 раз
Статус: √ проверено
Размер: 718 MB
Как cкачать? Как скачать Здравствуй, Дедушка Мороз! через торрент | UTorrent

% Раздел Тема Автор DL S | L
Детские отечественные фильмы [ 1.45 GB ] Здравствуй, Дедушка Мороз! | | DLRip-AVC bober100 Скачать
1 | 0
Детские отечественные фильмы [ 1.46 GB ] Здравствуй, Дедушка Мороз! | | DLRip bober100 Скачать
1 | 0
Детские отечественные фильмы [ 2.59 GB ] Здравствуй, Дедушка Мороз! | | 720p bober100 Скачать
1 | 0
Детские отечественные фильмы [ 3.92 GB ] Здравствуй, Дедушка Мороз! | | 1080p bober100 Скачать
1 | 0

28-11-2019 20:33  


Отключить вcю реклaмy на сайте, в т.ч. и в плеере онлайн просмотра!

    Дорогой пользователь! Огромная просьба, поблагодарите релизера, оцените раздачу и оставьте свои комментарий, если Вы скачали Здравствуй, Дедушка Мороз! через торрент бесплатно!!
    Комментировать посты могут только пользователи прошедшие не сложную регистрацию
    Показать сообщения:    


    Здравствуй, Дедушка Мороз! через торрент
    Скачать бесплатно Здравствуй, Дедушка Мороз!
    Здравствуй, Дедушка Мороз! скачать торрент
    Здравствуй, Дедушка Мороз! смотреть онлайн
    Cкачать фильм Здравствуй, Дедушка Мороз! бесплатно
    Здравствуй, Дедушка Мороз! скачать торрент в хорошем качестве
    Здравствуй, Дедушка Мороз! смотреть онлайн бесплатно в хорошем качестве
    Вы не можете начинать темы
    Вы не можете отвечать на сообщения
    Вы не можете редактировать свои сообщения
    Вы не можете удалять свои сообщения
    Вы не можете голосовать в опросах
    Вы не можете прикреплять файлы к сообщениям
    Вы можете скачивать файлы
    Здравствуй, Дедушка Мороз! [2021 г., семейный, комедия, WEB-DLRip "iTunes"] смотреть онлайн, скачать торрент picoco.icu