Всегда рабочее зеркало без VPN и Proxy просто перед .vidak.icu напиши любое слово или цифру, Пример http://enf3.vidak.icu

MVO

Лицензия

1 сезон

1

1 сезон

iTunes

1 сезон

13

1 сезон

Deluxe

pack

Рекомендуем

Пиратка

30

ВАЖНО

RePack

MK11

RePack

jed

RePack

fifa19

RePack

RDR2

RePack

NEED FOR SPEED™ PAYBACK

Кинопоиск HD

6 сезон

 Острые козырьки 6 сезон

Все сериалы

все сериалы на PB.wtf

RePack

FAR CRY 5
  
Magnet ссылка

Стас / Сезон: 1 / Серии: 1-8 из 8 (Андрей Элинсон) [2021, Комедия, WEBRip 1080p] pb.wtf

Стас через торрент pb.wtf

Размер: 5.57 GB | Добавлен: 6 мес. назад | Торрент скачан:218 раз
Смотреть онлайн Стас | Скачать    Ребята, помогите собрать деньги на оплату серверов!!!

02-01-2022 02:48 Стас Скачать торрент  

Стас
Год выпуска: 2021
Страна: Россия
Жанр: Комедия
Продолжительность: ~ 00:20:00
Перевод: Не требуется
Субтитры: отсутствуют

Режиссер: Андрей Элинсон



В ролях: Стас Старовойтов, Полина Долиндо, Ева Смирнова

Описание: О том, как главный герой Стас переживает семейные трудности, он шутливо рассказывает в стендапе. Сцены сериала — это главная сюжетная линия ситкома, а выступления Стаса в стендапе — его внутренний монолог, который в реальной жизни не всегда уместен.

Качество: WEBRip 1080p
Формат: MKV

Видео: MPEG-4 AVC, ~ 4500 Кбит/с, 1920x1072
Аудио: 48.0 kHz, AC3 Dolby Digital, 2/0 (L,R) ch, ~ 192 kbps
скриншот  скриншот  скриншот  скриншот  

Общее
Уникальный идентификатор : 224795437983236821064408419964529208031 (0xA91E06CB26F3FA4FB21F54248D10EADF)
Полное имя : D:Stas.S01.2021.WEB-DL.1080pStas.S01.E01.2021.WEB-DL.1080p.mkv
Формат : Matroska
Версия формата : Version 4
Размер файла : 708 Мбайт
Продолжительность : 21 м. 8 с.
Режим общего битрейта : Переменный
Общий поток : 4 683 Кбит/сек
Название фильма : Stas.S01.E01.2021.WEB-DL.1080p
Дата кодирования : UTC 2022-01-01 21:02:14
Программа кодирования : mkvmerge v64.0.0 ('Willows') 64-bit
Библиотека кодирования : libebml v1.4.2 + libmatroska v1.6.4
Attachments : poster.jpg

Видео
Идентификатор : 1
Формат : AVC
Формат/Информация : Advanced Video Codec
Профиль формата : High@L4.1
Настройки формата : CABAC / 2 Ref Frames
Параметр CABAC формата : Да
Параметр RefFrames формата : 2 кадра
Идентификатор кодека : V_MPEG4/ISO/AVC
Продолжительность : 21 м. 8 с.
Вид битрейта : Переменный
Битрейт : 4 500 Кбит/сек
Ширина : 1 920 пикселей
Высота : 1 072 пикселя
Соотношение сторон : 16:9
Режим частоты кадров : Постоянный
Частота кадров : 25,000 кадров/сек
Цветовое пространство : YUV
Субдискретизация насыщенности : 4:2:0
Битовая глубина : 8 бит
Тип развёртки : Прогрессивная
Бит/(Пиксели*Кадры) : 0.087
Размер потока : 678 Мбайт (96%)
Default : Да
Forced : Нет
Цветовой диапазон : Limited
Основные цвета : BT.709
Характеристики трансфера : BT.709

Аудио
Идентификатор : 2
Формат : AC-3
Формат/Информация : Audio Coding 3
Коммерческое название : Dolby Digital
Идентификатор кодека : A_AC3
Продолжительность : 21 м. 8 с.
Вид битрейта : Постоянный
Битрейт : 192 Кбит/сек
Каналы : 2 канала
Channel layout : L R
Частота : 48,0 КГц
Частота кадров : 31,250 кадров/сек (1536 SPF)
Метод сжатия : С потерями
Задержка видео : -120 мс.
Размер потока : 29,0 Мбайт (4%)
Service kind : Complete Main
Default : Да
Forced : Нет

pb.wtf



Скачать Стас через торрент https://b.radikal.ru/b25/2201/ae/8b129ddc0015.jpg Скачать, смотреть онлайн Стас бесплантно в хорошем качестве Описание: О том, как главный герой Стас переживает семейные трудности, он шутливо рассказывает в стендапе. Сцены сериала — это главная ... 9.1 10 10
Торрент: Зарегистрирован [2022-01-02 02:48] · скачан: 218 раз
Статус: √ проверено
Размер: 5.57 GB
Как cкачать? Как скачать Стас через торрент | UTorrent

% Раздел Тема Автор DL S | L
TNT serials [ 4.7 GB ] ЮЗЗЗ / Сезон: 1 / Серии: 1-8 из 8 [2022 WEBRip] bober100 Скачать
11 | 2
TNT serials [ 11.85 GB ] ЮЗЗЗ / Сезон: 1 / Серии: 1-8 из 8 [2022 WEBRip 1080p] bober100 Скачать
26 | 6
TNT serials [ 4.57 GB ] ЮЗЗЗ / Сезон: 1 / Серии: 1-8 из 8 [2022 WEBRip-AVC] bober100 Скачать
8 | 0
TNT serials [ 8.05 GB ] ЮЗЗЗ / Сезон: 1 / Серии: 1-8 из 8 [2022 WEBRip 720p] bober100 Скачать
6 | 3
Наши сериалы [ 4.62 GB ] Бег улиток / Сезон: 1 / Серии: 1-8 из 8 [2021 WEBRip-AVC ] bober100 Скачать
1 | 0
Наши сериалы [ 9.6 GB ] Бег улиток / Сезон: 1 / Серии: 1-8 из 8 [2021 WEBRip 720p ] bober100 Скачать
1 | 0
Наши сериалы [ 14.83 GB ] Бег улиток / Сезон: 1 / Серии: 1-8 из 8 [2021 WEBRip 1080p ] bober100 Скачать
4 | 0

28-11-2019 20:33  

Отключить всю рекламу на сайте

02-01-2022 03:02 Стас Скачать торрент  

за релиз спасибо! а так не тратьте время!pb.wtf



02-01-2022 12:13 Стас Скачать торрент  

дно пробил наш кинематограф)pb.wtf



02-01-2022 12:26 Стас Скачать торрент  

Артём554984 писал(а):

дно пробил наш кинематограф)

Это не наш кинематограф ... еврейско-чурбанский . ТНТ же ...pb.wtf



04-01-2022 06:55 Стас Скачать торрент  

давно он звездой стал!?
даже не подумаю о просмотре.pb.wtf



    Дорогой пользователь! Огромная просьба, поблагодарите релизера, оцените раздачу и оставьте свои комментарий, если Вы скачали Стас через торрент бесплатно!
    Комментировать посты могут только пользователи прошедшие не сложную регистрацию
    Показать сообщения:    

    Стас через торрент
    Скачать бесплатно Стас
    Стас скачать торрент
    Стас смотреть онлайн
    Cкачать фильм Стас бесплатно
    Стас скачать торрент в хорошем качестве
    Стас смотреть онлайн бесплатно в хорошем качестве


    Вы не можете начинать темы
    Вы не можете отвечать на сообщения
    Вы не можете редактировать свои сообщения
    Вы не можете удалять свои сообщения
    Вы не можете голосовать в опросах
    Вы не можете прикреплять файлы к сообщениям
    Вы можете скачивать файлы