Доктор Стрэндж

Лицензия

Добыча

Дубляж

Уэнсдэй

1 сезон

Тор

Дубляж

В эфире

Дубляж

Там, где раки поют

MVO

Властелин колец

1 сезон

Deluxe

pack

Рекомендуем

30

Пиратка

ВАЖНО

ВАЖНО

Ghostwire

Пиратка

jed

RePack

nioh2

RePack

RDR2

RePack

NEED FOR SPEED™ PAYBACK

RePack

скачать торрент

Кинопоиск HD

Острые козырьки 6 сезон

6 сезон

FAR CRY 6

RePack

скачать торрент

Лицензия

скачать торрент

MVO

1

1 сезон

скачать торрент

1 сезон

скачать торрент

Лицензия

  

Ряд 19 (Александр Бабаев) [2021, Триллер, BDRip 1080p] [GER Transfer]

Ряд 19 через торрент pb.wtf

Размер: 6.34 GB | Добавлен: 6 мес. назад | Торрент скачан:67 раз
Смотреть онлайн | Скачать   

02-01-2022 15:10 Ряд 19 Скачать торрент  

Ряд 19
Год выпуска: 2021
Страна: Россия
Студия: Централ Партнершип, Киностудия КИТ, IKa film
Жанр: Триллер
Продолжительность: 01:17:57
Перевод: Не требуется |
Субтитры: отсутствуют

Режиссер: Александр Бабаев

rating

В ролях: Светлана Иванова, Вольфганг Черни, Марта Кесслер, Екатерина Вилкова, Анатолий Кот, Виталия Корниенко, Денис Ясик, Анна Глаубэ, Виктория Корлякова, Иван Верховых

Описание: Молодая врач Катя с 6-летней дочерью Дианой в страшную непогоду летит ночным рейсом. В полупустом салоне самолёта начинают происходить необъяснимые события, выходящие за рамки реальности. Кате предстоит посмотреть в глаза собственному страху и заново пережить главный кошмар свой детский кошмар.

Качество: BDRip 1080p
Формат: MKV

Видео: MPEG-4 AVC, 10.4 Мб/с, 1920x814, 24.000 fps
Аудио: Русский (AC3, 6 ch, 448 Кбит/с)
Аудио: Русский (DTS, 6 ch, 768 Кбит/с)
скриншот  скриншот  скриншот  скриншот  

General
Unique ID : 249832076000684723047833485501338120089 (0xBBF3E85A08C8F42790A036FA65EE6F99)
Complete name : D:\Video1\Row.19.BDRip.1080p.ExKinoRay.mkv
Format : Matroska
Format version : Version 4
File size : 6.34 GiB
Duration : 1 h 17 min
Overall bit rate : 11.6 Mb/s
Movie name : Row 19 from ExKInoRay
Encoded date : UTC 2022-05-14 07:16:24
Writing application : mkvmerge v16.0.0 ('Protest') 64-bit
Writing library : libebml v1.3.5 + libmatroska v1.4.8

Video
ID : 1
Format : AVC
Format/Info : Advanced Video Codec
Format profile : [email protected]
Format settings : CABAC / 5 Ref Frames
Format settings, CABAC : Yes
Format settings, Reference : 5 frames
Codec ID : V_MPEG4/ISO/AVC
Duration : 1 h 17 min
Bit rate : 10.4 Mb/s
Width : 1 920 pixels
Height : 814 pixels
Display aspect ratio : 2.35:1
Frame rate mode : Constant
Frame rate : 24.000 FPS
Color space : YUV
Chroma subsampling : 4:2:0
Bit depth : 8 bits
Scan type : Progressive
Bits/(Pixel*Frame) : 0.278
Stream size : 5.68 GiB (90%)
Writing library : x264 core 146 r2538 121396c
Encoding settings : cabac=1 / ref=5 / deblock=1:-2:-2 / analyse=0x3:0x133 / me=umh / subme=11 / psy=1 / psy_rd=1.00:0.00 / mixed_ref=1 / me_range=48 / chroma_me=1 / trellis=2 / 8x8dct=1 / cqm=0 / deadzone=21,11 / fast_pskip=0 / chroma_qp_offset=-2 / threads=48 / lookahead_threads=6 / sliced_threads=0 / nr=0 / decimate=0 / interlaced=0 / bluray_compat=0 / constrained_intra=0 / bframes=9 / b_pyramid=2 / b_adapt=2 / b_bias=0 / direct=3 / weightb=1 / open_gop=0 / weightp=2 / keyint=240 / keyint_min=24 / scenecut=40 / intra_refresh=0 / rc_lookahead=50 / rc=2pass / mbtree=0 / bitrate=10436 / ratetol=1.0 / qcomp=0.60 / qpmin=0 / qpmax=51 / qpstep=4 / cplxblur=20.0 / qblur=0.5 / vbv_maxrate=50000 / vbv_bufsize=62500 / nal_hrd=none / filler=0 / ip_ratio=1.40 / pb_ratio=1.30 / aq=3:0.80
Language : German
Default : Yes
Forced : No

Audio #1
ID : 2
Format : AC-3
Format/Info : Audio Coding 3
Commercial name : Dolby Digital
Codec ID : A_AC3
Duration : 1 h 17 min
Bit rate mode : Constant
Bit rate : 448 kb/s
Channel(s) : 6 channels
Channel layout : L R C LFE Ls Rs
Sampling rate : 48.0 kHz
Frame rate : 31.250 FPS (1536 SPF)
Compression mode : Lossy
Stream size : 250 MiB (4%)
Language : Russian
Service kind : Complete Main
Default : Yes
Forced : No

Audio #2
ID : 3
Format : DTS
Format/Info : Digital Theater Systems
Codec ID : A_DTS
Duration : 1 h 17 min
Bit rate mode : Constant
Bit rate : 768 kb/s
Channel(s) : 6 channels
Channel layout : C L R Ls Rs LFE
Sampling rate : 48.0 kHz
Frame rate : 93.750 FPS (512 SPF)
Bit depth : 16 bits
Compression mode : Lossy
Stream size : 428 MiB (7%)
Language : Russian
Default : No
Forced : No

Menu
00:00:00.000 : Глава 01
00:04:06.333 : Глава 02
00:15:04.042 : Глава 03
00:21:58.042 : Глава 04
00:30:38.542 : Глава 05
00:39:51.250 : Глава 06
00:48:40.792 : Глава 07
00:51:11.750 : Глава 08
00:54:07.833 : Глава 09
01:01:19.667 : Глава 10
01:08:59.167 : Глава 11
01:14:27.500 : Глава 12




Скачать Ряд 19 через торрент https://i7-imageban-ru.translate.goog/out/2022/01/02/a7e2ae4639b6b92d55ba32b6994345b4.jpg Скачать, смотреть онлайн Ряд 19 бесплантно в хорошем качестве Описание: Молодая врач Катя с 6-летней дочерью Дианой в страшную непогоду летит ночным рейсом. В полупустом салоне самолёта начинают ... 8.2 10 9
Торрент: Зарегистрирован [2022-05-14 09:37] · скачан: 67 раз
Статус: √ проверено
Размер: 6.34 GB
Как cкачать? Как скачать Ряд 19 через торрент | UTorrent

% Раздел Тема Автор DL S | L
Наши новые фильмы 2020 - 2022 [ 716 MB ] Ряд 19 | | HDRip, coc900 Скачать
1 | 0
Наши фильмы (Blu-ray, BD-Remux, HDDVD) [ 18.39 GB ] Ряд 19 | | 1080p bober100 Скачать
1 | 0
Наши новые фильмы 2020 - 2022 [ 1.27 GB ] Ряд 19 | OKKO | DLRip-AVC Lithuania Скачать
1 | 0
Наши новые фильмы 2020 - 2022 [ 1.09 GB ] Ряд 19 | | DLRip-AVC bober100 Скачать
1 | 0
Наши фильмы (HD, WEB-DL 720p, 1080p) [ 1.83 GB ] Ряд 19 | | 720p bober100 Скачать
1 | 0
Наши новые фильмы 2020 - 2022 [ 1.09 GB ] Ряд 19 | | DLRip bober100 Скачать
2 | 0



Последний раз редактировалось: bober100 (2022-05-14 10:21), всего редактировалось 3 раз(а)

28-11-2019 20:33  


Отключить вcю реклaмy на сайте, в т.ч. и в плеере онлайн просмотра!

04-01-2022 08:02 Ряд 19 Скачать торрент  

Недостатки актерской игры в "триллер моментах" попытались компенсировать "эпичной" музыкой, которая в итоге просто режет слух... фильм на 6 из 10



    Дорогой пользователь! Огромная просьба, поблагодарите релизера, оцените раздачу и оставьте свои комментарий, если Вы скачали Ряд 19 через торрент бесплатно!!
    Комментировать посты могут только пользователи прошедшие не сложную регистрацию
    Показать сообщения:    


    Ряд 19 через торрент
    Скачать бесплатно Ряд 19
    Ряд 19 скачать торрент
    Ряд 19 смотреть онлайн
    Cкачать фильм Ряд 19 бесплатно
    Ряд 19 скачать торрент в хорошем качестве
    Ряд 19 смотреть онлайн бесплатно в хорошем качестве
    Вы не можете начинать темы
    Вы не можете отвечать на сообщения
    Вы не можете редактировать свои сообщения
    Вы не можете удалять свои сообщения
    Вы не можете голосовать в опросах
    Вы не можете прикреплять файлы к сообщениям
    Вы можете скачивать файлы
    Ряд 19 [2021, Триллер, BDRip 1080p] [GER Transfer] смотреть онлайн, скачать торрент picoco.icu